<?xml version="1.0" standalone="no"?>
<!DOCTYPE svg PUBLIC "-//W3C//DTD SVG 1.1//EN" "http://www.w3.org/Graphics/SVG/1.1/DTD/svg11.dtd">
<svg xmlns="http://www.w3.org/2000/svg">
<defs >
<font id="ZenMaruGothic" horiz-adv-x="975" ><font-face
    font-family="Zen Maru Gothic"
    units-per-em="1000"
    panose-1="0 0 0 0 0 0 0 0 0 0"
    ascent="1160"
    descent="-288"
    alphabetic="0" />
<glyph unicode=" " glyph-name="space" horiz-adv-x="280" />
<glyph unicode="!" glyph-name="exclam" horiz-adv-x="280" d="M140 184Q115 184 113 217L109 670Q107 703 140 703Q173 703 171 670L167 217Q166 184 140 184ZM140 -12Q117 -12 101 4T84 43Q84 66 100 82T140 99Q163 99 179 83T196 43Q196 20 180 4T140 -12Z" />
<glyph unicode="&quot;" glyph-name="quotedbl" horiz-adv-x="336" d="M95 478Q84 478 76 486T67 505L65 737Q65 750 73 759T95 768Q108 768 116 759T125 737L123 505Q123 494 115 486T95 478ZM241 478Q230 478 222 486T214 505L211 737Q211 750 219 759T241 768Q254
768 263 759T271 737L269 505Q269 494 261 486T241 478Z" />
<glyph unicode="#" glyph-name="numbersign" horiz-adv-x="596" d="M155 0Q127 0 133 35L157 222H80Q47 222 47 248Q47 274 77 274H165L185 426H109Q76 426 76 452Q76 478 106 478H192L218 669Q224 700 250 700Q276 700 271 665L246 478H386L412 669Q418 700 444
700Q470 700 465 665L439 478H516Q549 478 549 452Q549 426 519 426H432L412 274H486Q519 274 519 248Q519 222 490 222H405L379 31Q375 0 348 0Q321 0 326 35L351 222H211L185 31Q181 0 155 0ZM219 274H358L379 426H240L219 274Z" />
<glyph unicode="$" glyph-name="dollar" horiz-adv-x="608" d="M306 -72Q284 -72 284 -52V-12Q222 -7 169 15T76 80Q66 92 68 104T81 123Q103 140 125 116Q186 58 284 49V327Q186 345 134 392T82 522Q82 576 107 618T178 685T284 714V755Q284 767 290 772T306
777Q329 777 329 755V713Q381 709 425 691T509 641Q534 618 510 597Q490 577 465 599Q434 622 401 635T329 652V380Q448 356 499 308T551 177Q551 120 522 79T443 14T329 -12V-52Q329 -62 323 -67T306 -72ZM329 48Q372 50 408 64T466 107T488 176Q488 210 476 236T430
282T329 317V48ZM284 391V653Q224 649 185 616T146 524Q146 472 177 440T284 391Z" />
<glyph unicode="%" glyph-name="percent" horiz-adv-x="766" d="M200 370Q135 370 96 416T56 541Q56 620 95 666T200 713Q265 713 304 667T343 541Q343 462 304 416T200 370ZM567 -11Q502 -11 463 35T423 160Q423 238 462 285T567 332Q632 332 671 285T710 160Q710
81 671 35T567 -11ZM164 10Q145 -16 127 -4Q110 8 129 35L599 693Q619 721 636 707Q655 693 635 667L164 10ZM567 39Q612 39 635 72T659 160Q659 216 636 248T567 280Q522 280 499 248T475 160Q475 105 498 72T567 39ZM200 421Q244 421 268 453T292 541Q292 597
268 629T200 661Q155 661 132 629T108 541Q108 486 131 454T200 421Z" />
<glyph unicode="&amp;" glyph-name="ampersand" horiz-adv-x="653" d="M249 -13Q152 -13 100 36T47 173Q47 225 71 262T135 327T217 380Q169 430 144 471T119 558Q119 610 144 644T210 697T294 715Q346 715 384 695T443 641T464 562Q464 515 441 480T382 419T303
368L460 179Q485 208 508 241T556 310Q576 338 599 321Q623 306 605 278Q579 240 553 203T499 134L576 40Q590 24 589 12T571 0H557Q532 0 519 17L458 91Q411 45 360 16T249 -13ZM252 45Q296 45 338 70T421 135L253 338Q216 316 183 293T130 241T110 173Q110 107
147 76T252 45ZM267 410Q304 431 334 453T384 501T403 562Q403 604 374 631T295 659Q246 659 213 632T180 557Q180 531 190 510T219 465T267 410Z" />
<glyph unicode="&apos;" glyph-name="quotesingle" horiz-adv-x="190" d="M95 478Q84 478 76 486T67 505L65 737Q65 750 73 759T95 768Q108 768 116 759T125 737L123 505Q123 494 115 486T95 478Z" />
<glyph unicode="(" glyph-name="parenleft" horiz-adv-x="327" d="M270 -151Q259 -158 248 -156T228 -143Q161 -45 123 73T85 317Q85 443 123 561T228 777Q236 788 247 790T270 786Q281 779 282 767T277 745Q214 653 179 545T144 317Q144 198 179 90T277 -111Q284
-121 283 -133T270 -151Z" />
<glyph unicode=")" glyph-name="parenright" horiz-adv-x="327" d="M57 -151Q47 -145 46 -133T50 -111Q113 -18 148 90T183 317Q183 436 148 544T50 745Q44 755 45 767T57 786Q69 793 81 791T100 777Q167 680 204 562T242 317Q242 191 205 73T100 -143Q93 -153
81 -155T57 -151Z" />
<glyph unicode="*" glyph-name="asterisk" horiz-adv-x="507" d="M184 370Q164 342 143 359Q120 374 140 402L209 498L97 534Q66 545 74 570Q82 596 113 585L227 549V667Q227 700 254 700Q280 700 280 667V549L392 585Q423 596 433 570Q442 545 410 534L297 498L367
401Q387 373 365 359Q343 343 324 369L254 467L184 370Z" />
<glyph unicode="+" glyph-name="plus" horiz-adv-x="922" d="M486 55Q486 22 461 22Q436 22 436 55L435 330H160Q127 330 127 356Q127 381 160 381H436V657Q436 690 462 690Q487 690 487 657V382L763 381Q796 381 796 356Q796 331 763 331L487 330L486 55Z" />
<glyph unicode="," glyph-name="comma" horiz-adv-x="277" d="M128 -133Q99 -147 89 -126Q81 -112 112 -96Q139 -82 154 -62T169 -14Q169 10 161 23Q156 9 144 0T116 -10Q95 -10 81 4T66 40Q66 62 82 75T120 90Q158 92 184 63T211 -16Q211 -57 189 -86T128 -133Z" />
<glyph unicode="-" glyph-name="hyphen" horiz-adv-x="442" d="M95 224Q82 224 74 232T65 254Q65 266 73 275T95 284H347Q360 284 368 275T377 254Q377 241 369 233T347 224H95Z" />
<glyph unicode="." glyph-name="period" horiz-adv-x="243" d="M122 -11Q98 -11 82 5T66 44Q66 67 82 83T122 100Q145 100 161 84T177 44Q177 22 161 6T122 -11Z" />
<glyph unicode="/" glyph-name="slash" horiz-adv-x="546" d="M113 -13Q99 -43 78 -32Q56 -21 71 8L433 715Q447 746 469 734Q491 722 475 694L113 -13Z" />
<glyph unicode="0" glyph-name="zero" horiz-adv-x="504" d="M252 -11Q146 -11 101 76T56 351Q56 538 101 625T252 712Q359 712 403 625T447 351Q447 163 403 76T252 -11ZM252 46Q299 46 329 74T374 170T389 351Q389 464 375 530T330 625T252 654Q205 654 175
626T130 531T115 351Q115 237 129 170T174 75T252 46Z" />
<glyph unicode="1" glyph-name="one" horiz-adv-x="383" d="M214 0Q185 0 185 33V625L70 554Q42 535 26 560Q11 584 39 603L180 691Q198 702 221 702Q243 702 243 669V33Q243 0 214 0Z" />
<glyph unicode="2" glyph-name="two" horiz-adv-x="445" d="M71 0Q38 0 38 22Q38 73 60 119T121 211T207 304Q243 340 274 374T327 443T349 513Q351 581 317 615T220 649Q174 649 142 621T103 539Q97 507 72 507Q58 507 50 516T44 542Q54 616 101 661T220 706Q306
706 358 655T407 512Q406 466 383 425T325 344T248 264Q213 229 181 195T127 125T100 55H367Q400 55 400 28Q400 0 367 0H71Z" />
<glyph unicode="3" glyph-name="three" horiz-adv-x="484" d="M219 -11Q156 -11 111 21T42 107Q34 122 39 133T57 148Q71 153 80 148T97 129Q112 92 143 69T218 45Q289 45 328 82T367 191Q367 259 323 300T209 341Q179 341 179 369Q179 397 209 397Q275 397 312
434T349 531Q349 575 331 602T282 641T218 654Q178 654 150 631T105 572Q96 559 87 555T64 556Q51 561 47 572T51 597Q79 654 124 683T219 712Q303 712 356 664T409 532Q409 476 380 433T302 370Q357 351 392 303T427 190Q427 133 405 88T336 16T219 -11Z" />
<glyph unicode="4" glyph-name="four" horiz-adv-x="493" d="M340 0Q312 0 312 33V176H53Q19 176 19 199Q19 212 22 221T31 240L303 682Q311 695 319 699T341 704Q368 704 368 671V231H441Q474 231 474 204Q474 176 446 176H368V33Q368 0 340 0ZM86 231H312V600L86 231Z" />
<glyph unicode="5" glyph-name="five" horiz-adv-x="468" d="M221 -7Q172 -7 127 14T50 75Q38 87 40 99T54 118Q75 131 98 110Q148 51 221 51Q293 51 332 93T372 213Q372 281 337 325T239 370Q211 370 185 357T144 324Q134 315 126 309T104 303Q74 303 74 336V667Q74
700 108 700H373Q406 700 406 672Q406 644 373 644H134V383Q154 402 182 413T240 425Q295 425 338 400T405 327T430 213Q430 107 372 50T221 -7Z" />
<glyph unicode="6" glyph-name="six" horiz-adv-x="493" d="M258 -11Q197 -11 151 22T79 132T57 345Q61 536 118 624T281 712Q325 712 359 696T420 651Q432 640 432 629T420 608Q409 600 399 602T378 614Q359 634 336 644T281 655Q229 655 197 628T146 552T122
442T115 311Q135 355 173 378T261 402Q312 402 353 378T420 309T445 200Q445 138 422 91T356 16T258 -11ZM255 45Q298 45 327 67T370 124T385 200Q385 265 351 305T261 345Q221 345 188 324T138 267T127 185Q135 117 168 81T255 45Z" />
<glyph unicode="7" glyph-name="seven" horiz-adv-x="412" d="M170 0Q157 0 150 9T146 35Q157 96 176 174T220 337T272 501T324 644H53Q19 644 19 672Q19 700 53 700H359Q392 700 392 679Q392 659 384 639Q359 579 333 500T282 335T237 171T206 30Q200 0 170 0Z" />
<glyph unicode="8" glyph-name="eight" horiz-adv-x="509" d="M255 -11Q197 -11 152 15T82 87T56 193Q56 257 88 302T169 370Q126 392 101 432T75 526Q75 581 98 622T161 688T255 712Q308 712 348 688T412 623T435 526Q435 472 410 432T341 370Q391 348 422 303T453
193Q453 133 428 87T359 15T255 -11ZM255 45Q317 45 356 83T395 194Q395 265 356 304T255 343Q194 343 155 304T115 194Q115 122 154 84T255 45ZM255 394Q311 394 343 429T376 525Q376 586 343 620T255 654Q200 654 167 620T134 525Q134 465 166 430T255 394Z"
/>
<glyph unicode="9" glyph-name="nine" horiz-adv-x="475" d="M193 -11Q149 -11 116 5T55 49Q43 60 44 72T56 92Q75 107 97 86Q116 67 139 56T193 44Q245 44 278 72T330 149T354 260T360 389Q341 346 302 323T214 299Q163 299 122 323T55 392T30 501Q30 563 53
610T119 685T217 712Q278 712 324 679T396 568T418 355Q414 165 357 77T193 -11ZM214 354Q254 354 287 375T337 434T348 516Q331 654 219 654Q177 654 148 633T104 577T89 501Q89 436 123 395T214 354Z" />
<glyph unicode=":" glyph-name="colon" horiz-adv-x="243" d="M122 380Q98 380 82 396T66 435Q66 459 82 475T122 491Q145 491 161 475T177 435Q177 413 161 397T122 380ZM122 -11Q98 -11 82 5T66 44Q66 67 82 83T122 100Q145 100 161 84T177 44Q177 22 161 6T122 -11Z" />
<glyph unicode=";" glyph-name="semicolon" horiz-adv-x="260" d="M128 -133Q99 -147 89 -126Q81 -112 112 -96Q139 -82 154 -62T169 -14Q169 10 161 23Q156 9 144 0T116 -10Q95 -10 81 4T66 40Q66 62 82 75T120 90Q158 92 184 63T211 -16Q211 -57 189 -86T128
-133ZM122 380Q98 380 82 396T66 435Q66 459 82 475T122 491Q145 491 161 475T177 435Q177 413 161 397T122 380Z" />
<glyph unicode="&lt;" glyph-name="less" horiz-adv-x="639" d="M91 200Q77 206 72 215T66 239Q66 268 91 280L535 480Q552 488 563 485T574 468Q574 440 548 428L130 240L548 52Q574 40 574 14Q574 -2 563 -5T535 -2L91 200Z" />
<glyph unicode="=" glyph-name="equal" horiz-adv-x="922" d="M761 212Q794 212 794 187Q794 161 761 161H162Q129 161 129 187Q129 212 162 212H761ZM162 448Q129 448 129 474Q129 499 162 499H761Q794 499 794 474Q794 448 761 448H162Z" />
<glyph unicode="&gt;" glyph-name="greater" horiz-adv-x="639" d="M105 -2Q87 -9 77 -5T66 12Q66 41 91 52L509 240L91 428Q66 438 66 465Q66 479 76 483T105 480L548 280Q574 268 574 240Q574 211 548 200L105 -2Z" />
<glyph unicode="?" glyph-name="question" horiz-adv-x="507" d="M253 184Q227 184 225 216L223 338Q222 366 252 374Q316 388 356 421T397 513Q397 580 357 617T252 655Q207 655 172 635T119 578Q109 563 101 559T78 557Q64 561 58 571T58 597Q84 650 135 681T252
713Q312 713 359 689T434 621T461 513Q461 440 414 393T281 327L280 216Q278 184 253 184ZM252 -12Q230 -12 214 4T197 43Q197 66 213 82T252 99Q276 99 292 83T309 43Q309 20 293 4T252 -12Z" />
<glyph unicode="@" glyph-name="at" horiz-adv-x="818" d="M426 -13Q319 -13 233 29T97 149T47 336Q47 416 75 485T156 605T278 685T430 714Q499 714 560 688T669 617T744 511T772 381Q772 324 749 278T680 204T565 176Q492 176 475 220Q434 176 363 176Q317 176
284 198T239 263T245 367Q262 438 309 478T418 518Q489 518 524 466L531 492Q537 510 561 510Q586 510 577 474L527 273Q520 246 530 235T575 224Q645 224 682 267T720 381Q720 440 697 491T634 581T542 642T430 664Q338 664 263 623T144 508T100 336Q100 243 141
176T256 72T426 36Q491 36 545 55T641 112Q666 134 682 119Q700 102 679 81Q631 36 566 12T426 -13ZM368 225Q401 225 433 242T483 310L508 411Q501 438 477 454T420 470Q380 470 346 442T298 362Q279 301 296 263T368 225Z" />
<glyph unicode="A" glyph-name="A" horiz-adv-x="653" d="M54 0Q38 0 33 9T33 34L291 677Q298 700 324 700H329Q355 700 362 677L621 34Q632 0 600 0H590Q566 0 557 23L483 211H170L95 23Q87 0 62 0H54ZM191 270H461L327 613L191 270Z" />
<glyph unicode="B" glyph-name="B" horiz-adv-x="630" d="M113 0Q84 0 84 29V671Q84 700 113 700H340Q441 700 490 654T539 523Q539 467 512 427T441 369Q501 351 537 302T574 187Q574 96 521 48T356 0H113ZM145 59H351Q434 59 471 92T509 192Q509 257 464 296T348
335H145V59ZM145 394H343Q406 394 440 428T474 517Q474 582 440 612T332 642H145V394Z" />
<glyph unicode="C" glyph-name="C" horiz-adv-x="671" d="M367 -13Q272 -13 200 32T88 159T47 351Q47 461 87 542T200 669T367 715Q441 715 501 686T605 604Q615 593 612 582T597 563L594 562Q586 557 575 558T553 569Q482 654 367 654Q292 654 234 618T143 513T110
351Q110 257 143 189T234 84T367 47Q423 47 471 69T553 132Q574 153 594 140L597 138Q608 131 611 120T606 97Q563 45 502 16T367 -13Z" />
<glyph unicode="D" glyph-name="D" horiz-adv-x="673" d="M117 0Q84 0 84 33V667Q84 700 117 700H287Q374 700 438 673T543 597T605 485T626 350Q626 279 606 216T544 104T438 28T287 0H117ZM145 59H284Q383 59 444 99T534 206T563 350Q563 428 535 494T445 601T284
642H145V59Z" />
<glyph unicode="E" glyph-name="E" horiz-adv-x="579" d="M117 0Q84 0 84 33V667Q84 700 117 700H486Q519 700 519 671Q519 642 486 642H145V388H453Q486 388 486 358Q486 328 453 328H145V59H498Q531 59 531 30Q531 0 498 0H117Z" />
<glyph unicode="F" glyph-name="F" horiz-adv-x="551" d="M115 0Q84 0 84 33V667Q84 700 117 700H488Q522 700 522 671Q522 642 488 642H145V388H456Q489 388 489 358Q489 328 456 328H145V33Q145 0 115 0Z" />
<glyph unicode="G" glyph-name="G" horiz-adv-x="673" d="M372 -13Q278 -13 205 33T89 161T47 351Q47 459 89 541T204 669T372 715Q435 715 488 696T582 639Q608 618 586 594Q568 573 541 593Q472 654 372 654Q294 654 235 616T143 509T110 351Q110 262 143 193T235
86T372 47Q427 47 467 58T544 91V299H427Q394 299 394 329Q394 358 427 358H573Q606 358 606 325V79Q606 52 592 44Q560 25 507 6T372 -13Z" />
<glyph unicode="H" glyph-name="H" horiz-adv-x="683" d="M113 0Q84 0 84 29V671Q84 700 113 700H116Q145 700 145 671V395H537V671Q537 700 566 700H570Q599 700 599 671V29Q599 0 570 0H566Q537 0 537 29V337H145V29Q145 0 116 0H113Z" />
<glyph unicode="I" glyph-name="I" horiz-adv-x="230" d="M115 0Q84 0 84 33V667Q84 700 115 700Q145 700 145 667V33Q145 0 115 0Z" />
<glyph unicode="J" glyph-name="J" horiz-adv-x="525" d="M240 -13Q140 -13 90 38T31 179Q28 213 61 213Q75 213 82 205T94 182Q106 48 240 48Q388 48 388 213V667Q388 700 419 700Q450 700 450 667V213Q450 108 400 48T240 -13Z" />
<glyph unicode="K" glyph-name="K" horiz-adv-x="605" d="M115 0Q84 0 84 33V667Q84 700 115 700Q145 700 145 667V393L461 679Q472 692 482 696T506 700Q529 700 533 687T525 659L202 372L553 37Q564 24 560 11T533 -3Q516 -3 505 3T486 18L145 353V33Q145 0 115 0Z" />
<glyph unicode="L" glyph-name="L" horiz-adv-x="561" d="M117 0Q84 0 84 33V667Q84 700 115 700Q145 700 145 667V59H499Q532 59 532 30Q532 0 499 0H117Z" />
<glyph unicode="M" glyph-name="M" horiz-adv-x="771" d="M115 0Q84 0 84 33V667Q84 700 120 700Q146 700 159 678L386 339L611 678Q619 691 629 695T654 700Q687 700 687 667V33Q687 0 656 0Q624 0 624 33V593L416 278Q403 256 386 256Q368 256 355 278L146 593V33Q146
0 115 0Z" />
<glyph unicode="N" glyph-name="N" horiz-adv-x="686" d="M115 0Q84 0 84 33V667Q84 700 115 700H120Q145 700 160 678L540 110V667Q540 700 572 700Q602 700 602 667V33Q602 0 573 0H567Q541 0 528 22L145 596V33Q145 0 115 0Z" />
<glyph unicode="O" glyph-name="O" horiz-adv-x="732" d="M367 -13Q272 -13 200 32T88 159T47 351Q47 461 87 542T200 669T367 715Q461 715 533 670T645 543T686 351Q686 241 646 159T533 32T367 -13ZM367 47Q442 47 499 83T589 188T622 351Q622 445 590 513T500
617T367 654Q292 654 234 618T143 513T110 351Q110 257 143 189T234 84T367 47Z" />
<glyph unicode="P" glyph-name="P" horiz-adv-x="628" d="M115 0Q84 0 84 33V668Q84 701 117 701H389Q488 701 539 655T591 518Q591 427 540 381T389 335H145V33Q145 0 115 0ZM145 394H384Q456 394 491 424T527 518Q527 582 492 612T384 642H145V394Z" />
<glyph unicode="Q" glyph-name="Q" horiz-adv-x="732" d="M367 -13Q272 -13 200 32T88 159T47 351Q47 461 87 542T200 669T367 715Q461 715 533 670T645 543T686 351Q686 289 673 235T633 138L725 62Q751 41 731 17Q712 -8 687 12L596 87Q555 39 497 13T367 -13ZM367
47Q422 47 468 68T546 126L457 201Q431 223 451 246Q470 271 493 252L582 178Q601 212 611 255T622 351Q622 445 590 513T500 617T367 654Q292 654 234 618T143 513T110 351Q110 257 143 189T234 84T367 47Z" />
<glyph unicode="R" glyph-name="R" horiz-adv-x="640" d="M115 0Q84 0 84 33V668Q84 701 117 701H389Q488 701 539 655T591 518Q591 347 411 336L570 39Q578 22 574 11T554 0H545Q517 0 506 24L343 335H145V33Q145 0 115 0ZM145 394H384Q456 394 491 424T527 518Q527
582 492 612T384 642H145V394Z" />
<glyph unicode="S" glyph-name="S" horiz-adv-x="608" d="M313 -12Q242 -12 182 10T76 80Q54 105 81 123Q103 140 125 116Q197 47 314 47Q361 47 400 61T464 104T488 176Q488 214 473 242T412 291T278 328Q82 365 82 522Q82 579 110 622T188 690T304 715Q364 715
414 696T509 641Q534 618 510 597Q490 577 465 598Q428 626 389 640T303 654Q235 654 191 621T146 524Q146 469 181 435T310 384Q439 361 495 312T551 177Q551 118 520 76T434 11T313 -12Z" />
<glyph unicode="T" glyph-name="T" horiz-adv-x="598" d="M300 0Q268 0 268 33V642H71Q38 642 38 671Q38 700 71 700H527Q561 700 561 671Q561 642 527 642H331V33Q331 0 300 0Z" />
<glyph unicode="U" glyph-name="U" horiz-adv-x="651" d="M325 -12Q205 -12 140 60T74 272V667Q74 700 106 700Q137 700 137 667V274Q137 168 184 109T325 49Q419 49 466 108T514 274V667Q514 700 545 700Q576 700 576 667V272Q576 133 511 61T325 -12Z" />
<glyph unicode="V" glyph-name="V" horiz-adv-x="618" d="M309 -1Q280 -1 271 27L33 662Q20 700 57 700Q86 700 95 673L309 92L523 673Q532 700 561 700Q578 700 584 690T584 662L347 27Q336 -1 309 -1Z" />
<glyph unicode="W" glyph-name="W" horiz-adv-x="844" d="M228 0Q200 0 194 29L38 664Q34 681 40 690T61 700Q92 700 98 671L232 112L390 672Q397 700 422 700Q447 700 454 672L612 112L745 671Q751 700 781 700Q797 700 804 691T807 664L650 29Q644 0 616 0Q587
0 580 28L421 587L263 28Q256 0 228 0Z" />
<glyph unicode="X" glyph-name="X" horiz-adv-x="597" d="M76 0Q52 0 48 12T54 40L264 369L77 660Q64 680 70 690T99 700Q125 700 139 678L298 425L459 678Q474 700 499 700Q520 700 525 689T520 660L333 369L544 40Q555 23 550 12T521 0Q495 0 482 22L298 312L116
22Q102 0 76 0Z" />
<glyph unicode="Y" glyph-name="Y" horiz-adv-x="585" d="M294 0Q262 0 262 33V300L52 660Q42 678 47 689T72 700Q88 700 97 695T114 677L293 368L472 677Q484 700 511 700Q531 700 537 689T533 660L325 300V33Q325 0 294 0Z" />
<glyph unicode="Z" glyph-name="Z" horiz-adv-x="552" d="M80 0Q47 0 47 30V37Q47 58 60 78L427 642H94Q61 642 61 671Q61 700 94 700H469Q502 700 502 671V664Q502 643 489 623L122 59H472Q505 59 505 30Q505 0 472 0H80Z" />
<glyph unicode="[" glyph-name="bracketleft" horiz-adv-x="317" d="M189 -146Q130 -146 108 -125T85 -48V683Q85 739 107 760T189 781H246Q257 781 264 774T272 755Q272 745 265 737T246 729H189Q163 729 153 720T143 683V-48Q143 -75 153 -84T189 -94H246Q257
-94 264 -101T272 -120Q272 -130 265 -138T246 -146H189Z" />
<glyph unicode="\" glyph-name="backslash" horiz-adv-x="546" d="M469 -32Q447 -43 433 -13L71 694Q56 723 78 734Q98 746 113 715L475 8Q491 -21 469 -32Z" />
<glyph unicode="]" glyph-name="bracketright" horiz-adv-x="317" d="M71 -146Q61 -146 53 -138T45 -120Q45 -109 53 -102T71 -94H128Q154 -94 164 -85T174 -48V683Q174 710 164 719T128 729H71Q61 729 53 737T45 755Q45 766 53 773T71 781H128Q187 781 209 760T232
683V-48Q232 -103 210 -124T128 -146H71Z" />
<glyph unicode="^" glyph-name="asciicircum" horiz-adv-x="573" d="M79 267Q66 267 62 278T66 306L249 676Q260 700 286 700Q313 700 324 676L507 306Q515 289 512 278T495 267H490Q464 267 452 293L286 634L121 293Q109 267 83 267H79Z" />
<glyph unicode="_" glyph-name="underscore" horiz-adv-x="666" d="M86 -78Q77 -78 71 -72T65 -57Q65 -49 71 -43T86 -36H580Q589 -36 595 -42T601 -57Q601 -66 595 -72T580 -78H86Z" />
<glyph unicode="`" glyph-name="grave" horiz-adv-x="352" d="M291 545Q280 529 259 544L72 668Q50 684 66 704L79 719Q95 739 115 722L284 576Q302 559 291 545Z" />
<glyph unicode="a" glyph-name="a" horiz-adv-x="535" d="M202 -9Q132 -10 89 23T45 119Q45 167 77 203T160 259T265 280Q339 280 382 245V327Q382 394 354 414T264 435Q231 435 192 425T120 399Q90 387 77 408Q62 434 93 448Q130 467 176 479T264 491Q355 491
398 456T441 327V62Q441 49 446 46T467 43Q480 43 489 39T498 24Q498 -1 473 -5Q465 -7 456 -8T439 -9Q405 -9 395 5T383 58Q352 24 301 8T202 -9ZM205 46Q253 47 294 61T360 101T383 166Q380 197 349 212T269 227Q228 227 190 213T129 175T105 118Q105 81 133
64T205 46Z" />
<glyph unicode="b" glyph-name="b" horiz-adv-x="568" d="M299 -11Q244 -11 201 15T132 90V28Q132 13 124 7T103 0Q74 0 74 33V689Q74 722 105 722Q135 722 135 689V395Q161 439 203 464T299 490Q363 490 413 459T491 371T520 240Q520 165 492 109T413 21T299
-11ZM298 46Q345 46 381 70T439 137T460 240Q460 299 439 342T382 409T298 433Q227 433 181 381T135 240Q135 152 181 99T298 46Z" />
<glyph unicode="c" glyph-name="c" horiz-adv-x="485" d="M269 -11Q205 -11 155 20T76 109T47 240Q47 314 76 370T155 458T269 490Q355 490 414 434Q427 424 426 412T414 391Q402 383 393 384T370 395Q327 433 269 433Q199 433 154 381T108 240Q108 152 153 99T269
46Q328 46 369 84Q381 94 391 95T414 89Q425 80 426 69T415 46Q355 -11 269 -11Z" />
<glyph unicode="d" glyph-name="d" horiz-adv-x="568" d="M269 -11Q205 -11 155 20T76 108T47 240Q47 315 76 371T155 458T269 490Q323 490 365 465T432 395V689Q432 722 462 722Q493 722 493 689V33Q493 0 465 0Q437 0 437 21L436 88Q410 42 367 16T269 -11ZM271
46Q318 46 354 70T412 137T433 240Q433 299 412 342T355 409T271 433Q224 433 187 409T129 342T108 240Q108 181 129 138T187 70T271 46Z" />
<glyph unicode="e" glyph-name="e" horiz-adv-x="524" d="M270 -11Q205 -11 155 19T76 106T47 240Q47 315 75 371T154 458T268 490Q333 490 378 458T448 377T472 277Q472 259 464 252T439 245H108Q106 155 150 100T271 44Q365 44 411 129Q431 155 452 143Q478
126 459 98Q396 -11 270 -11ZM112 297H412Q407 336 388 368T338 419T268 438Q207 438 166 401T112 297Z" />
<glyph unicode="f" glyph-name="f" horiz-adv-x="360" d="M159 0Q128 0 128 33V423H62Q29 423 29 452Q29 479 56 479H128V574Q128 633 148 666T201 713T272 727Q301 727 321 721T340 694Q338 667 305 670Q297 671 291 671T276 672Q239 672 214 648T188 570V479H307Q340
479 340 452Q340 423 307 423H188V33Q188 0 159 0Z" />
<glyph unicode="g" glyph-name="g" horiz-adv-x="549" d="M262 -216Q150 -216 82 -139Q60 -114 87 -96Q108 -81 131 -104Q179 -158 262 -158Q336 -158 375 -110T414 36V122Q389 83 349 61T258 38Q197 38 150 66T75 145T47 265Q47 334 74 384T149 463T258 491Q310
491 352 467T419 398V451Q419 479 446 479Q474 479 474 446V36Q474 -94 416 -155T262 -216ZM261 94Q306 94 341 115T396 175T416 265Q416 316 396 354T341 413T261 435Q217 435 183 414T128 354T108 265Q108 214 128 176T182 116T261 94Z" />
<glyph unicode="h" glyph-name="h" horiz-adv-x="528" d="M105 0Q74 0 74 33V689Q74 722 105 722Q135 722 135 689V411Q156 445 194 468T282 491Q359 491 406 442T453 302V33Q453 0 423 0Q393 0 393 33V293Q393 363 360 398T273 433Q233 433 202 416T153 369T135
303V33Q135 0 105 0Z" />
<glyph unicode="i" glyph-name="i" horiz-adv-x="241" d="M121 0Q91 0 91 33V446Q91 479 121 479Q151 479 151 446V33Q151 0 121 0ZM121 583Q102 583 88 596T74 629Q74 649 88 662T121 675Q140 675 153 662T166 629Q166 610 153 597T121 583Z" />
<glyph unicode="j" glyph-name="j" horiz-adv-x="235" d="M3 -216Q-5 -216 -14 -215T-35 -212Q-49 -210 -56 -200T-63 -176Q-63 -148 -38 -153Q-30 -154 -22 -154T-5 -155Q45 -155 64 -132T84 -48V446Q84 479 115 479Q145 479 145 446V-48Q145 -140 110 -178T3
-216ZM115 583Q96 583 83 596T69 629Q69 649 82 662T115 675Q133 675 146 662T160 629Q160 610 147 597T115 583Z" />
<glyph unicode="k" glyph-name="k" horiz-adv-x="477" d="M104 0Q74 0 74 29V693Q74 722 104 722H106Q135 722 135 693V283L339 464Q359 482 378 482Q396 482 403 468T391 433L190 262L417 36Q429 22 421 10T396 -3Q373 -3 358 13L135 241V29Q135 0 106 0H104Z" />
<glyph unicode="l" glyph-name="l" horiz-adv-x="210" d="M105 0Q74 0 74 33V689Q74 722 105 722Q135 722 135 689V33Q135 0 105 0Z" />
<glyph unicode="m" glyph-name="m" horiz-adv-x="799" d="M105 0Q74 0 74 33V446Q74 479 103 479Q132 479 132 457L134 404Q150 441 187 466T271 491Q329 491 366 464T417 389Q434 433 471 462T566 491Q640 491 682 445T724 305V33Q724 0 694 0Q663 0 663 33V296Q663
372 634 403T556 434Q518 434 490 415T446 364T430 295V33Q430 0 400 0Q369 0 369 33V296Q369 372 340 403T261 434Q223 434 195 414T151 363T135 296V33Q135 0 105 0Z" />
<glyph unicode="n" glyph-name="n" horiz-adv-x="528" d="M105 0Q74 0 74 33V446Q74 479 103 479Q132 479 132 457L133 411Q156 445 194 468T282 491Q359 491 406 442T453 302V33Q453 0 423 0Q393 0 393 33V293Q393 363 360 398T273 433Q233 433 202 416T153 369T135
303V33Q135 0 105 0Z" />
<glyph unicode="o" glyph-name="o" horiz-adv-x="539" d="M269 -11Q205 -11 155 21T76 109T47 240Q47 314 76 370T155 459T269 491Q334 491 384 459T463 371T492 240Q492 166 463 110T384 21T269 -11ZM269 46Q316 46 352 70T410 137T431 240Q431 299 410 342T353
410T269 434Q199 434 154 382T108 240Q108 152 153 99T269 46Z" />
<glyph unicode="p" glyph-name="p" horiz-adv-x="568" d="M105 -208Q74 -208 74 -175V446Q74 479 103 479Q131 479 131 459L132 392Q158 439 201 465T299 491Q363 491 413 460T491 372T520 240Q520 165 492 109T413 21T299 -11Q245 -11 203 15T135 85V-175Q135
-208 105 -208ZM298 46Q345 46 381 70T439 137T460 240Q460 299 439 342T382 410T298 434Q227 434 181 382T135 240Q135 152 181 99T298 46Z" />
<glyph unicode="q" glyph-name="q" horiz-adv-x="568" d="M462 -208Q432 -208 432 -175V85Q407 41 365 15T269 -11Q205 -11 155 20T76 108T47 240Q47 315 76 371T155 459T269 491Q324 491 367 465T436 392V452Q436 479 464 479Q493 479 493 446V-175Q493 -208
462 -208ZM271 46Q318 46 354 70T412 137T433 240Q433 299 412 342T355 410T271 434Q224 434 187 410T129 343T108 240Q108 181 129 138T187 70T271 46Z" />
<glyph unicode="r" glyph-name="r" horiz-adv-x="376" d="M105 0Q74 0 74 33V446Q74 479 106 479Q118 479 126 473T135 451V396Q155 438 198 464T295 491Q321 491 336 484T351 458Q351 443 343 436T322 430Q315 430 307 431T289 432Q247 432 212 413T157 361T136
287V33Q136 0 105 0Z" />
<glyph unicode="s" glyph-name="s" horiz-adv-x="458" d="M238 -11Q183 -11 138 7T61 60Q48 71 49 82T60 103Q79 119 104 99Q127 73 162 59T240 45Q289 45 323 66T358 134Q358 175 325 191T224 221Q182 230 145 243T84 282T61 356Q61 399 84 429T147 475T230 491Q328
491 379 430Q393 420 393 409T383 389Q373 379 363 380T340 391Q303 435 231 435Q179 435 151 413T123 357Q123 320 153 305T248 275Q293 265 332 250T396 208T420 133Q420 69 371 29T238 -11Z" />
<glyph unicode="t" glyph-name="t" horiz-adv-x="377" d="M261 -11Q197 -11 165 16T133 113V423H62Q29 423 29 452Q29 479 62 479H133V622Q133 655 163 655Q193 655 193 622V479H306Q339 479 339 452Q339 423 306 423H193V123Q193 78 212 62T271 45Q276 45 281
45T292 46Q312 47 325 45T339 23Q339 1 315 -5T261 -11Z" />
<glyph unicode="u" glyph-name="u" horiz-adv-x="519" d="M236 -11Q160 -11 113 38T66 178V446Q66 479 96 479Q126 479 126 446V186Q126 116 159 81T246 46Q307 46 345 84T383 177V446Q383 479 414 479Q444 479 444 446V34Q444 1 416 1Q387 1 387 23L385 68Q364
35 325 12T236 -11Z" />
<glyph unicode="v" glyph-name="v" horiz-adv-x="480" d="M244 -1Q233 -1 223 5T208 26L44 441Q37 458 42 468T64 479Q93 479 102 453L243 87L380 453Q391 479 418 479Q433 479 438 469T437 441L279 27Q268 -1 244 -1Z" />
<glyph unicode="w" glyph-name="w" horiz-adv-x="683" d="M203 0Q179 0 171 27L40 442Q36 459 41 469T59 479H60Q90 479 97 451L204 98L309 451Q316 479 341 479Q366 479 373 451L479 98L587 451Q594 479 623 479Q637 479 642 469T643 442L512 27Q503 0 480 0Q455
0 448 28L342 382L235 28Q228 0 203 0Z" />
<glyph unicode="x" glyph-name="x" horiz-adv-x="508" d="M66 0Q51 0 49 11T59 40L219 258L85 439Q73 456 75 467T92 479H102Q128 479 142 459L254 306L366 459Q374 470 383 474T406 479Q425 479 429 468T422 439L289 259L450 40Q462 23 460 12T444 0H432Q406
0 392 21L254 210L116 21Q102 0 76 0H66Z" />
<glyph unicode="y" glyph-name="y" horiz-adv-x="482" d="M98 -216Q88 -216 79 -215T59 -212Q29 -209 29 -179Q29 -153 55 -156Q75 -159 94 -159Q131 -159 149 -143T183 -85L215 0L42 441Q35 458 40 468T59 479H62Q89 479 100 453L243 76L381 452Q390 479 418
479Q434 479 440 469T440 441L237 -104Q216 -162 184 -189T98 -216Z" />
<glyph unicode="z" glyph-name="z" horiz-adv-x="439" d="M71 0Q38 0 38 27V31Q38 54 52 72L323 425H89Q56 425 56 452Q56 479 89 479H363Q396 479 396 452V448Q396 436 393 427T382 407L110 54H368Q401 54 401 28Q401 0 368 0H71Z" />
<glyph unicode="{" glyph-name="braceleft" horiz-adv-x="389" d="M267 -146Q217 -146 189 -111T160 -8V162Q160 212 145 248T89 290Q79 292 72 300T65 318Q65 328 72 336T89 345Q130 351 145 387T160 473V643Q160 710 188 745T267 781H318Q329 781 336 774T344
755Q344 744 337 737T318 729H279Q218 729 218 640V471Q218 405 199 369T143 318Q179 302 198 266T218 164V-5Q218 -94 279 -94H318Q329 -94 336 -101T344 -120Q344 -130 337 -138T318 -146H267Z" />
<glyph unicode="|" glyph-name="bar" horiz-adv-x="221" d="M111 -29Q84 -29 84 4V695Q84 728 111 728Q137 728 137 695V4Q137 -29 111 -29Z" />
<glyph unicode="}" glyph-name="braceright" horiz-adv-x="389" d="M71 -146Q61 -146 53 -138T45 -120Q45 -109 53 -102T71 -94H110Q171 -94 171 -5V164Q171 230 190 266T246 318Q210 333 191 369T171 471V640Q171 729 110 729H71Q61 729 53 736T45 755Q45 766
53 773T71 781H122Q172 781 200 746T229 643V473Q229 424 244 388T300 345Q311 344 317 336T324 318Q324 308 318 300T300 290Q260 284 245 248T229 162V-8Q229 -75 201 -110T122 -146H71Z" />
<glyph unicode="~" glyph-name="asciitilde" horiz-adv-x="613" d="M117 298Q98 276 78 292Q68 300 67 311T75 335Q95 362 124 383T194 404Q219 404 249 394T311 369T370 344T417 333Q460 333 492 378Q515 401 534 387Q544 380 546 369T537 344Q518 318 489 297T418
276Q395 276 365 286T302 311T241 336T194 347Q169 347 151 333T117 298Z" />
<glyph unicode="&#xa0;" glyph-name="uni00A0" horiz-adv-x="280" />
<glyph unicode="&#xa1;" glyph-name="exclamdown" horiz-adv-x="280" d="M140 519Q165 519 167 487L171 34Q173 0 140 0Q107 0 109 34L113 487Q115 519 140 519ZM140 715Q163 715 179 699T196 660Q196 637 180 621T140 604Q117 604 101 620T84 660Q84 683 100
699T140 715Z" />
<glyph unicode="&#xa2;" glyph-name="cent" horiz-adv-x="466" d="M252 -72Q229 -72 229 -45V106Q174 115 131 148T64 234T40 354Q40 421 64 474T131 560T229 602V750Q229 777 252 777Q274 777 274 750V605Q355 602 413 549Q427 539 427 527T414 506Q392 489 372
506Q330 545 274 546V161Q329 162 369 199Q381 208 391 209T413 203Q424 194 425 182T413 159Q357 106 274 104V-45Q274 -72 252 -72ZM229 164V544Q172 531 136 481T100 354Q100 278 136 228T229 164Z" />
<glyph unicode="&#xa3;" glyph-name="sterling" horiz-adv-x="596" d="M103 0Q87 -5 77 -2T57 14Q42 38 66 59Q170 144 170 258Q170 277 168 292T161 321H73Q40 321 40 349Q40 377 65 377H145Q134 406 125 438T116 516Q116 608 172 661T326 714Q398 714 450 677T524
572Q530 556 523 546T501 533Q485 530 477 535T460 556Q448 594 416 624T326 654Q260 654 220 619T180 516Q180 476 190 443T212 377H354Q387 377 387 349Q387 321 354 321H226Q234 291 234 258Q234 204 211 157T144 66Q171 76 192 79T233 83Q269 83 300 75T364
58T437 49Q461 49 477 52T507 61Q539 71 551 48Q559 35 555 23T536 6Q516 -3 493 -7T437 -12Q393 -12 359 -3T293 16T223 26Q198 26 169 22T103 0Z" />
<glyph unicode="&#xa4;" glyph-name="currency" horiz-adv-x="572" d="M295 125Q227 125 178 155L96 54Q86 42 76 39T58 43Q40 58 61 83L143 182Q82 243 82 352Q82 460 142 521L61 619Q40 644 58 659Q66 667 76 664T96 648L177 549Q227 579 295 579Q363 579 412
549L493 648Q503 660 513 663T531 659Q549 644 528 619L447 522Q507 460 507 352Q507 243 446 182L528 83Q549 58 531 43Q516 28 493 54L411 154Q362 125 295 125ZM295 186Q367 186 406 229T446 352Q446 431 407 474T295 518Q222 518 183 475T143 352Q143 273 182
230T295 186Z" />
<glyph unicode="&#xa5;" glyph-name="yen" horiz-adv-x="575" d="M289 0Q258 0 258 33V190H99Q66 190 66 217Q66 244 99 244H258V300L240 331H99Q66 331 66 358Q66 384 95 384H209L48 660Q38 677 41 688T60 700H70Q97 700 109 677L289 368L468 677Q481 700 509
700Q527 700 533 689T529 660L368 384H477Q510 384 510 358Q510 331 477 331H337L320 300V244H477Q510 244 510 217Q510 190 477 190H320V33Q320 0 289 0Z" />
<glyph unicode="&#xa6;" glyph-name="brokenbar" horiz-adv-x="221" d="M111 -29Q84 -29 84 4V247Q84 280 111 280Q137 280 137 247V4Q137 -29 111 -29ZM111 419Q84 419 84 452V695Q84 728 111 728Q137 728 137 695V452Q137 419 111 419Z" />
<glyph unicode="&#xa7;" glyph-name="section" horiz-adv-x="922" d="M455 -36Q341 -36 285 53Q275 67 278 78T295 94Q308 99 317 96T337 80Q375 18 454 18Q484 18 512 26T558 53T576 103Q576 124 563 142T517 181T424 224Q339 256 303 288T266 369Q266 409 292
441T371 495Q336 516 314 543T291 608Q291 675 341 711T471 748Q517 748 560 726T628 669Q638 657 636 646T619 627Q606 621 598 625T579 639Q561 664 532 679T472 695Q417 695 384 672T351 608Q351 576 387 550T502 493Q585 461 620 430T655 348Q655 299 625 269T555
222Q593 198 614 170T636 103Q636 41 588 3T455 -36ZM514 245Q551 258 569 274T594 308T600 341Q600 358 591 373T554 407T467 448Q453 453 440 459T413 471Q373 458 354 441T328 406T322 375Q322 359 332 343T371 310T459 269Q474 263 487 257T514 245Z" />
<glyph unicode="&#xa8;" glyph-name="dieresis" horiz-adv-x="387" d="M100 577Q80 577 65 591T50 627Q50 648 65 662T100 677Q121 677 135 663T150 627Q150 606 136 592T100 577ZM287 577Q267 577 252 591T237 627Q237 648 252 662T287 677Q308 677 322 663T337
627Q337 606 323 592T287 577Z" />
<glyph unicode="&#xa9;" glyph-name="copyright" horiz-adv-x="840" d="M420 -10Q345 -10 280 18T166 95T88 210T60 350Q60 425 88 490T165 604T280 682T420 710Q495 710 560 682T674 605T752 490T780 350Q780 275 752 210T675 96T560 18T420 -10ZM420 38Q485
38 541 62T641 129T708 228T732 350Q732 415 708 471T641 571T542 638T420 662Q355 662 299 638T199 571T132 472T108 350Q108 285 132 229T199 129T298 62T420 38ZM418 116Q357 116 311 145T238 227T212 350Q212 421 238 473T310 555T418 585Q508 585 564 521Q576
509 576 498T566 481Q556 474 547 477T526 491Q485 538 418 538Q347 538 304 487T260 350Q260 265 303 214T418 162Q484 162 526 209Q538 218 547 221T566 219Q576 213 576 202T564 179Q509 116 418 116Z" />
<glyph unicode="&#xaa;" glyph-name="ordfeminine" horiz-adv-x="535" d="M202 284Q132 283 89 316T45 412Q45 460 77 496T160 552T265 573Q339 573 382 538V620Q382 687 354 707T264 728Q231 728 192 718T120 692Q90 680 77 701Q62 727 93 741Q130 760 176 772T264
784Q355 784 398 749T441 620V355Q441 342 446 339T467 336Q480 336 489 332T498 317Q498 292 473 288Q465 286 456 285T439 284Q405 284 395 298T383 351Q352 317 301 301T202 284ZM205 339Q253 340 294 354T360 394T383 459Q380 490 349 505T269 520Q228 520
190 506T129 468T105 411Q105 374 133 357T205 339ZM146 400Q133 400 125 408T116 430Q116 442 124 451T146 460H398Q411 460 419 451T428 430Q428 417 420 409T398 400H146Z" />
<glyph unicode="&#xab;" glyph-name="guillemotleft" horiz-adv-x="560" d="M266 261Q248 284 266 307L399 456Q415 475 440 475Q457 475 461 463T451 434L317 284L451 134Q465 118 465 106T450 93H440Q415 93 399 112L266 261ZM68 261Q48 284 68 307L200 456Q218
475 241 475Q259 475 262 463T252 434L118 284L252 134Q266 118 266 106T252 93H241Q218 93 200 112L68 261Z" />
<glyph unicode="&#xac;" glyph-name="logicalnot" horiz-adv-x="922" d="M758 191Q732 191 732 224V437H146Q113 437 113 463Q113 489 146 489H750Q784 489 784 456V224Q784 191 758 191Z" />
<glyph unicode="&#xad;" glyph-name="uni00AD" horiz-adv-x="442" d="M95 224Q82 224 74 232T65 254Q65 266 73 275T95 284H347Q360 284 368 275T377 254Q377 241 369 233T347 224H95Z" />
<glyph unicode="&#xae;" glyph-name="registered" horiz-adv-x="754" d="M384 90Q320 90 264 114T165 181T98 280T74 400Q74 464 98 520T165 619T264 686T384 710Q448 710 504 686T603 619T670 520T694 400Q694 336 670 280T603 181T504 114T384 90ZM384 136Q457
136 516 171T611 267T647 400Q647 473 612 533T517 628T384 664Q311 664 251 629T156 533T120 400Q120 327 155 267T251 172T384 136ZM282 225Q261 225 261 248V575H418Q467 575 494 552T522 478Q522 390 440 382L506 252Q512 240 509 233T494 225H483Q464 225
457 242L389 380H309V248Q309 225 282 225ZM309 425H412Q438 425 455 436T473 478Q473 507 456 518T412 530H309V425Z" />
<glyph unicode="&#xaf;" glyph-name="overscore" horiz-adv-x="298" d="M266 664Q266 641 240 641H58Q32 641 32 664Q32 687 58 687H240Q266 687 266 664Z" />
<glyph unicode="&#xb0;" glyph-name="degree" horiz-adv-x="480" d="M159 566Q129 566 104 581T63 621T48 677Q48 708 63 733T103 773T159 788Q205 788 237 756T269 677Q269 631 237 599T159 566ZM159 602Q190 602 211 624T233 677Q233 708 212 729T159 750Q128
750 107 729T85 677Q85 646 106 624T159 602Z" />
<glyph unicode="&#xb1;" glyph-name="plusminus" horiz-adv-x="922" d="M461 137Q436 137 436 170V394H162Q129 394 129 420Q129 445 162 445H436V668Q436 701 461 701Q487 701 487 668V445H761Q794 445 794 420Q794 394 761 394H487V170Q487 137 461 137ZM162
24Q129 24 129 50Q129 76 162 76H761Q794 76 794 50Q794 24 761 24H162Z" />
<glyph unicode="&#xb2;" glyph-name="uni00B2" horiz-adv-x="321" d="M58 200Q25 200 25 219Q25 269 55 316T146 421Q184 457 213 493T243 559Q245 606 223 627T159 649Q131 649 111 633T85 585Q80 571 74 563T55 554Q42 554 35 563T32 590Q40 641 74 671T159
701Q223 701 260 664T296 558Q295 524 279 495T237 439T183 385Q147 350 117 316T82 250H257Q290 250 290 225Q290 200 257 200H58Z" />
<glyph unicode="&#xb3;" glyph-name="uni00B3" horiz-adv-x="378" d="M168 192Q126 192 94 212T44 267Q34 281 38 292T54 307Q66 311 74 307T90 294Q99 273 119 259T167 244Q213 244 238 267T264 338Q264 382 236 409T161 436Q134 436 134 461Q134 486 161 486Q205
486 228 510T252 573Q252 616 226 634T167 653Q143 653 127 640T100 607Q99 606 96 604Q87 597 79 593T60 593Q48 598 45 609T52 634Q72 667 102 686T168 705Q230 705 268 670T307 575Q307 536 287 506T233 463Q271 449 296 416T321 337Q321 273 283 233T168 192Z"
/>
<glyph unicode="&#xb4;" glyph-name="acute" horiz-adv-x="372" d="M136 544Q116 530 105 545Q93 560 111 576L281 722Q300 739 317 719L329 704Q345 683 323 668L136 544Z" />
<glyph unicode="&#xb5;" glyph-name="uni00B5" horiz-adv-x="518" d="M97 -195Q66 -195 66 -162L70 454Q70 487 101 487Q132 487 132 454L130 159Q130 110 163 78T256 45Q326 45 353 83T381 177V454Q381 487 412 487Q443 487 443 454L441 33Q441 0 416 0Q392 0
389 18L387 52Q370 24 341 6T265 -12Q222 -12 186 4T129 52L128 -162Q128 -195 97 -195Z" />
<glyph unicode="&#xb6;" glyph-name="paragraph" horiz-adv-x="922" d="M439 -60Q418 -60 418 -38V383Q351 384 302 409T225 478T197 577Q197 635 224 679T300 748T418 773H684Q707 773 707 754Q707 735 684 735H637V-38Q637 -60 616 -60Q595 -60 595 -38V735H460V-38Q460
-60 439 -60Z" />
<glyph unicode="&#xb7;" glyph-name="middot" horiz-adv-x="243" d="M122 380Q98 380 82 396T66 435Q66 459 82 475T122 491Q145 491 161 475T177 435Q177 413 161 397T122 380Z" />
<glyph unicode="&#xb8;" glyph-name="cedilla" horiz-adv-x="333" d="M103 -176Q76 -176 76 -156Q76 -136 103 -136Q156 -134 180 -128T205 -108Q205 -80 135 -76Q105 -74 113 -48L120 -22Q126 0 148 0Q168 0 162 -21L155 -41Q199 -46 226 -63T254 -108Q254 -143
216 -158T103 -176Z" />
<glyph unicode="&#xb9;" glyph-name="uni00B9" horiz-adv-x="287" d="M164 200Q137 200 137 233V628L67 585Q41 568 25 590Q11 613 39 631L132 687Q150 698 171 698Q191 698 191 665V233Q191 200 164 200Z" />
<glyph unicode="&#xba;" glyph-name="ordmasculine" horiz-adv-x="539" d="M269 282Q205 282 155 314T76 402T47 533Q47 607 76 663T155 752T269 784Q334 784 384 752T463 664T492 533Q492 459 463 403T384 314T269 282ZM269 339Q316 339 352 363T410 430T431
533Q431 592 410 635T353 703T269 727Q199 727 154 675T108 533Q108 445 153 392T269 339ZM144 400Q131 400 123 408T114 430Q114 442 122 451T144 460H396Q409 460 417 451T426 430Q426 417 418 409T396 400H144Z" />
<glyph unicode="&#xbb;" glyph-name="guillemotright" horiz-adv-x="561" d="M492 307Q512 284 492 261L359 112Q343 93 318 93Q301 93 298 105T307 134L441 284L307 434Q294 451 294 463T308 475H318Q343 475 359 456L492 307ZM293 307Q313 284 293 261L161 112Q143
93 120 93Q102 93 99 105T109 134L243 284L109 434Q95 451 96 463T110 475H120Q143 475 161 456L293 307Z" />
<glyph unicode="&#xbc;" glyph-name="onequarter" horiz-adv-x="836" d="M164 200Q137 200 137 233V628L67 585Q41 568 25 590Q11 613 39 631L132 687Q150 698 171 698Q191 698 191 665V233Q191 200 164 200ZM206 10Q187 -16 169 -4Q152 8 171 35L641 693Q661
721 678 707Q696 694 677 667L206 10ZM718 0Q691 0 691 28V119H519Q486 119 486 141Q486 161 497 180L681 478Q693 500 719 500Q743 500 743 467V168H790Q817 168 817 144Q817 119 793 119H743V29Q743 0 718 0ZM543 168H691V409L543 168Z" />
<glyph unicode="&#xbd;" glyph-name="onehalf" horiz-adv-x="873" d="M164 200Q137 200 137 233V628L67 585Q41 568 25 590Q11 613 39 631L132 687Q150 698 171 698Q191 698 191 665V233Q191 200 164 200ZM184 10Q165 -16 147 -4Q130 8 149 35L619 693Q639 721
656 707Q674 694 655 667L184 10ZM597 0Q564 0 564 19Q564 69 594 116T685 221Q723 257 752 293T782 359Q784 406 762 427T698 449Q670 449 650 433T624 385Q619 371 613 363T594 354Q581 354 574 363T571 390Q579 441 613 471T698 501Q762 501 799 464T835 358Q834
324 818 295T776 239T722 185Q686 150 656 116T621 50H796Q829 50 829 25Q829 0 796 0H597Z" />
<glyph unicode="&#xbe;" glyph-name="threequarters" horiz-adv-x="867" d="M168 192Q126 192 94 212T44 267Q34 281 38 292T54 307Q66 311 74 307T90 294Q99 273 119 259T167 244Q213 244 238 267T264 338Q264 382 236 409T161 436Q134 436 134 461Q134 486 161
486Q205 486 228 510T252 573Q252 616 226 634T167 653Q143 653 127 640T100 607Q99 606 96 604Q87 597 79 593T60 593Q48 598 45 609T52 634Q72 667 102 686T168 705Q230 705 268 670T307 575Q307 536 287 506T233 463Q271 449 296 416T321 337Q321 273 283 233T168
192ZM260 10Q241 -16 223 -4Q206 8 225 35L695 693Q715 721 732 707Q750 694 731 667L260 10ZM749 0Q722 0 722 28V119H550Q517 119 517 141Q517 161 528 180L712 478Q724 500 750 500Q774 500 774 467V168H821Q848 168 848 144Q848 119 824 119H774V29Q774 0 749
0ZM574 168H722V409L574 168Z" />
<glyph unicode="&#xbf;" glyph-name="questiondown" horiz-adv-x="507" d="M256 517Q281 517 283 485L285 362Q286 333 256 327Q192 313 152 280T111 188Q111 121 151 84T256 46Q301 46 336 66T389 123Q397 137 406 142T429 144Q464 134 450 104Q425 50 373 19T256
-12Q196 -12 149 12T75 81T47 188Q47 261 94 308T227 373L229 485Q229 517 256 517ZM256 713Q279 713 295 697T311 657Q311 634 295 618T256 602Q232 602 216 618T200 657Q200 680 216 696T256 713Z" />
<glyph unicode="&#xc0;" glyph-name="Agrave" horiz-adv-x="653" d="M54 0Q38 0 33 9T33 34L291 677Q298 700 324 700H329Q355 700 362 677L621 34Q632 0 600 0H590Q566 0 557 23L483 211H170L95 23Q87 0 62 0H54ZM191 270H461L327 613L191 270ZM411 766Q400 750
379 765L192 889Q170 905 186 925L199 940Q215 960 235 943L404 797Q422 780 411 766Z" />
<glyph unicode="&#xc1;" glyph-name="Aacute" horiz-adv-x="653" d="M54 0Q38 0 33 9T33 34L291 677Q298 700 324 700H329Q355 700 362 677L621 34Q632 0 600 0H590Q566 0 557 23L483 211H170L95 23Q87 0 62 0H54ZM191 270H461L327 613L191 270ZM275 765Q255 751
244 766Q232 781 250 797L420 943Q439 960 456 940L468 925Q484 904 462 889L275 765Z" />
<glyph unicode="&#xc2;" glyph-name="Acircumflex" horiz-adv-x="653" d="M54 0Q38 0 33 9T33 34L291 677Q298 700 324 700H329Q355 700 362 677L621 34Q632 0 600 0H590Q566 0 557 23L483 211H170L95 23Q87 0 62 0H54ZM191 270H461L327 613L191 270ZM289 919Q303
933 321 933H333Q352 933 365 919L469 802Q485 784 472 771Q459 758 441 773L327 866L212 773Q193 757 181 771Q168 784 184 802L289 919Z" />
<glyph unicode="&#xc3;" glyph-name="Atilde" horiz-adv-x="653" d="M54 0Q38 0 33 9T33 34L291 677Q298 700 324 700H329Q355 700 362 677L621 34Q632 0 600 0H590Q566 0 557 23L483 211H170L95 23Q87 0 62 0H54ZM191 270H461L327 613L191 270ZM207 820Q194 797
177 812Q160 826 171 846Q186 874 206 895T252 916Q272 916 292 906T331 883T367 859T400 849Q425 849 445 890Q460 915 477 900Q493 885 482 867Q466 835 445 816T400 797Q382 797 362 807T323 831T286 854T254 865Q238 865 227 852T207 820Z" />
<glyph unicode="&#xc4;" glyph-name="Adieresis" horiz-adv-x="653" d="M54 0Q38 0 33 9T33 34L291 677Q298 700 324 700H329Q355 700 362 677L621 34Q632 0 600 0H590Q566 0 557 23L483 211H170L95 23Q87 0 62 0H54ZM191 270H461L327 613L191 270ZM233 771Q213
771 198 785T183 821Q183 841 198 856T233 871Q254 871 268 856T283 821Q283 800 269 786T233 771ZM420 771Q400 771 385 785T370 821Q370 841 385 856T420 871Q441 871 455 856T470 821Q470 800 456 786T420 771Z" />
<glyph unicode="&#xc5;" glyph-name="Aring" horiz-adv-x="653" d="M54 0Q38 0 33 9T33 34L291 677Q298 700 324 700H329Q355 700 362 677L621 34Q632 0 600 0H590Q566 0 557 23L483 211H170L95 23Q87 0 62 0H54ZM191 270H461L327 613L191 270ZM327 741Q284 741
255 771T225 844Q225 887 254 917T327 947Q370 947 400 917T430 844Q430 801 400 771T327 741ZM327 781Q353 781 371 800T390 844Q390 870 372 888T327 907Q301 907 283 889T264 844Q264 819 282 800T327 781Z" />
<glyph unicode="&#xc6;" glyph-name="AE" horiz-adv-x="892" d="M53 0Q38 0 33 9T35 33L406 680Q416 700 439 700H803Q831 700 831 672V669Q831 642 803 642H501V388H770Q798 388 798 360V356Q798 328 770 328H501V59H816Q844 59 844 31V28Q844 0 816 0H467Q439
0 439 28V211H207L99 20Q89 0 66 0H53ZM240 270H439V624L240 270Z" />
<glyph unicode="&#xc7;" glyph-name="Ccedilla" horiz-adv-x="671" d="M367 -13Q272 -13 200 32T88 159T47 351Q47 461 87 542T200 669T367 715Q441 715 501 686T605 604Q615 593 612 582T597 563L594 562Q586 557 575 558T553 569Q482 654 367 654Q292 654 234
618T143 513T110 351Q110 257 143 189T234 84T367 47Q423 47 471 69T553 132Q574 153 594 140L597 138Q608 131 611 120T606 97Q563 45 502 16T367 -13ZM307 -176Q280 -176 280 -156Q280 -136 307 -136Q360 -134 384 -128T409 -108Q409 -80 339 -76Q309 -74 317
-48L324 -22Q330 0 352 0Q372 0 366 -21L359 -41Q403 -46 430 -63T458 -108Q458 -143 420 -158T307 -176Z" />
<glyph unicode="&#xc8;" glyph-name="Egrave" horiz-adv-x="579" d="M117 0Q84 0 84 33V667Q84 700 117 700H486Q519 700 519 671Q519 642 486 642H145V388H453Q486 388 486 358Q486 328 453 328H145V59H498Q531 59 531 30Q531 0 498 0H117ZM374 766Q363 750 342
765L155 889Q133 905 149 925L162 940Q178 960 198 943L367 797Q385 780 374 766Z" />
<glyph unicode="&#xc9;" glyph-name="Eacute" horiz-adv-x="579" d="M117 0Q84 0 84 33V667Q84 700 117 700H486Q519 700 519 671Q519 642 486 642H145V388H453Q486 388 486 358Q486 328 453 328H145V59H498Q531 59 531 30Q531 0 498 0H117ZM238 765Q218 751 207
766Q195 781 213 797L383 943Q402 960 419 940L431 925Q447 904 425 889L238 765Z" />
<glyph unicode="&#xca;" glyph-name="Ecircumflex" horiz-adv-x="579" d="M117 0Q84 0 84 33V667Q84 700 117 700H486Q519 700 519 671Q519 642 486 642H145V388H453Q486 388 486 358Q486 328 453 328H145V59H498Q531 59 531 30Q531 0 498 0H117ZM252 919Q266
933 284 933H296Q315 933 328 919L432 802Q448 784 435 771Q422 758 404 773L290 866L175 773Q156 757 144 771Q131 784 147 802L252 919Z" />
<glyph unicode="&#xcb;" glyph-name="Edieresis" horiz-adv-x="579" d="M117 0Q84 0 84 33V667Q84 700 117 700H486Q519 700 519 671Q519 642 486 642H145V388H453Q486 388 486 358Q486 328 453 328H145V59H498Q531 59 531 30Q531 0 498 0H117ZM196 771Q176 771
161 785T146 821Q146 841 161 856T196 871Q217 871 231 856T246 821Q246 800 232 786T196 771ZM383 771Q363 771 348 785T333 821Q333 841 348 856T383 871Q404 871 418 856T433 821Q433 800 419 786T383 771Z" />
<glyph unicode="&#xcc;" glyph-name="Igrave" horiz-adv-x="230" d="M115 0Q84 0 84 33V667Q84 700 115 700Q145 700 145 667V33Q145 0 115 0ZM199 766Q188 750 167 765L-20 889Q-42 905 -26 925L-13 940Q3 960 23 943L192 797Q210 780 199 766Z" />
<glyph unicode="&#xcd;" glyph-name="Iacute" horiz-adv-x="230" d="M115 0Q84 0 84 33V667Q84 700 115 700Q145 700 145 667V33Q145 0 115 0ZM63 765Q43 751 32 766Q20 781 38 797L208 943Q227 960 244 940L256 925Q272 904 250 889L63 765Z" />
<glyph unicode="&#xce;" glyph-name="Icircumflex" horiz-adv-x="230" d="M115 0Q84 0 84 33V667Q84 700 115 700Q145 700 145 667V33Q145 0 115 0ZM77 919Q91 933 109 933H121Q140 933 153 919L257 802Q273 784 260 771Q247 758 229 773L115 866L0 773Q-19 757
-31 771Q-44 784 -28 802L77 919Z" />
<glyph unicode="&#xcf;" glyph-name="Idieresis" horiz-adv-x="230" d="M115 0Q84 0 84 33V667Q84 700 115 700Q145 700 145 667V33Q145 0 115 0ZM21 771Q1 771 -14 785T-29 821Q-29 841 -14 856T21 871Q42 871 56 856T71 821Q71 800 57 786T21 771ZM208 771Q188
771 173 785T158 821Q158 841 173 856T208 871Q229 871 243 856T258 821Q258 800 244 786T208 771Z" />
<glyph unicode="&#xd0;" glyph-name="Eth" horiz-adv-x="673" d="M117 0Q84 0 84 33V321H39Q5 321 5 350Q5 379 39 379H84V667Q84 700 117 700H287Q374 700 438 673T543 597T605 485T626 350Q626 279 606 216T544 104T438 28T287 0H117ZM145 59H284Q383 59 444
99T534 206T563 350Q563 428 535 494T445 601T284 642H145V379H263Q296 379 296 350Q296 321 263 321H145V59Z" />
<glyph unicode="&#xd1;" glyph-name="Ntilde" horiz-adv-x="686" d="M115 0Q84 0 84 33V667Q84 700 115 700H120Q145 700 160 678L540 110V667Q540 700 572 700Q602 700 602 667V33Q602 0 573 0H567Q541 0 528 22L145 596V33Q145 0 115 0ZM223 820Q210 797 193
812Q176 826 187 846Q202 874 222 895T268 916Q288 916 308 906T347 883T383 859T416 849Q441 849 461 890Q476 915 493 900Q509 885 498 867Q482 835 461 816T416 797Q398 797 378 807T339 831T302 854T270 865Q254 865 243 852T223 820Z" />
<glyph unicode="&#xd2;" glyph-name="Ograve" horiz-adv-x="732" d="M367 -13Q272 -13 200 32T88 159T47 351Q47 461 87 542T200 669T367 715Q461 715 533 670T645 543T686 351Q686 241 646 159T533 32T367 -13ZM367 47Q442 47 499 83T589 188T622 351Q622 445
590 513T500 617T367 654Q292 654 234 618T143 513T110 351Q110 257 143 189T234 84T367 47ZM451 766Q440 750 419 765L232 889Q210 905 226 925L239 940Q255 960 275 943L444 797Q462 780 451 766Z" />
<glyph unicode="&#xd3;" glyph-name="Oacute" horiz-adv-x="732" d="M367 -13Q272 -13 200 32T88 159T47 351Q47 461 87 542T200 669T367 715Q461 715 533 670T645 543T686 351Q686 241 646 159T533 32T367 -13ZM367 47Q442 47 499 83T589 188T622 351Q622 445
590 513T500 617T367 654Q292 654 234 618T143 513T110 351Q110 257 143 189T234 84T367 47ZM315 765Q295 751 284 766Q272 781 290 797L460 943Q479 960 496 940L508 925Q524 904 502 889L315 765Z" />
<glyph unicode="&#xd4;" glyph-name="Ocircumflex" horiz-adv-x="732" d="M367 -13Q272 -13 200 32T88 159T47 351Q47 461 87 542T200 669T367 715Q461 715 533 670T645 543T686 351Q686 241 646 159T533 32T367 -13ZM367 47Q442 47 499 83T589 188T622 351Q622
445 590 513T500 617T367 654Q292 654 234 618T143 513T110 351Q110 257 143 189T234 84T367 47ZM329 919Q343 933 361 933H373Q392 933 405 919L509 802Q525 784 512 771Q499 758 481 773L367 866L252 773Q233 757 221 771Q208 784 224 802L329 919Z" />
<glyph unicode="&#xd5;" glyph-name="Otilde" horiz-adv-x="732" d="M367 -13Q272 -13 200 32T88 159T47 351Q47 461 87 542T200 669T367 715Q461 715 533 670T645 543T686 351Q686 241 646 159T533 32T367 -13ZM367 47Q442 47 499 83T589 188T622 351Q622 445
590 513T500 617T367 654Q292 654 234 618T143 513T110 351Q110 257 143 189T234 84T367 47ZM247 820Q234 797 217 812Q200 826 211 846Q226 874 246 895T292 916Q312 916 332 906T371 883T407 859T440 849Q465 849 485 890Q500 915 517 900Q533 885 522 867Q506
835 485 816T440 797Q422 797 402 807T363 831T326 854T294 865Q278 865 267 852T247 820Z" />
<glyph unicode="&#xd6;" glyph-name="Odieresis" horiz-adv-x="732" d="M367 -13Q272 -13 200 32T88 159T47 351Q47 461 87 542T200 669T367 715Q461 715 533 670T645 543T686 351Q686 241 646 159T533 32T367 -13ZM367 47Q442 47 499 83T589 188T622 351Q622
445 590 513T500 617T367 654Q292 654 234 618T143 513T110 351Q110 257 143 189T234 84T367 47ZM273 771Q253 771 238 785T223 821Q223 841 238 856T273 871Q294 871 308 856T323 821Q323 800 309 786T273 771ZM460 771Q440 771 425 785T410 821Q410 841 425 856T460
871Q481 871 495 856T510 821Q510 800 496 786T460 771Z" />
<glyph unicode="&#xd7;" glyph-name="multiply" horiz-adv-x="922" d="M220 80Q197 57 179 74Q162 92 185 115L425 356L185 597Q162 620 179 638Q197 655 220 632L461 392L703 632Q726 655 744 638Q761 620 738 597L498 356L738 115Q761 92 743 74Q726 57 702
80L461 320L220 80Z" />
<glyph unicode="&#xd8;" glyph-name="Oslash" horiz-adv-x="732" d="M367 -13Q288 -13 224 19L207 -14Q193 -44 172 -33Q149 -22 165 7L184 43Q120 89 84 168T47 351Q47 461 87 542T200 669T367 715Q446 715 511 682L527 714Q541 745 563 733Q583 722 569 693L551
657Q614 611 650 533T686 351Q686 241 646 159T533 32T367 -13ZM212 99L482 627Q430 654 367 654Q292 654 234 618T143 513T110 351Q110 266 137 202T212 99ZM367 47Q442 47 499 83T589 188T622 351Q622 435 596 498T522 601L252 74Q304 47 367 47Z" />
<glyph unicode="&#xd9;" glyph-name="Ugrave" horiz-adv-x="651" d="M325 -12Q205 -12 140 60T74 272V667Q74 700 106 700Q137 700 137 667V274Q137 168 184 109T325 49Q419 49 466 108T514 274V667Q514 700 545 700Q576 700 576 667V272Q576 133 511 61T325 -12ZM409
766Q398 750 377 765L190 889Q168 905 184 925L197 940Q213 960 233 943L402 797Q420 780 409 766Z" />
<glyph unicode="&#xda;" glyph-name="Uacute" horiz-adv-x="651" d="M325 -12Q205 -12 140 60T74 272V667Q74 700 106 700Q137 700 137 667V274Q137 168 184 109T325 49Q419 49 466 108T514 274V667Q514 700 545 700Q576 700 576 667V272Q576 133 511 61T325 -12ZM273
765Q253 751 242 766Q230 781 248 797L418 943Q437 960 454 940L466 925Q482 904 460 889L273 765Z" />
<glyph unicode="&#xdb;" glyph-name="Ucircumflex" horiz-adv-x="651" d="M325 -12Q205 -12 140 60T74 272V667Q74 700 106 700Q137 700 137 667V274Q137 168 184 109T325 49Q419 49 466 108T514 274V667Q514 700 545 700Q576 700 576 667V272Q576 133 511 61T325
-12ZM287 919Q301 933 319 933H331Q350 933 363 919L467 802Q483 784 470 771Q457 758 439 773L325 866L210 773Q191 757 179 771Q166 784 182 802L287 919Z" />
<glyph unicode="&#xdc;" glyph-name="Udieresis" horiz-adv-x="651" d="M325 -12Q205 -12 140 60T74 272V667Q74 700 106 700Q137 700 137 667V274Q137 168 184 109T325 49Q419 49 466 108T514 274V667Q514 700 545 700Q576 700 576 667V272Q576 133 511 61T325
-12ZM231 771Q211 771 196 785T181 821Q181 841 196 856T231 871Q252 871 266 856T281 821Q281 800 267 786T231 771ZM418 771Q398 771 383 785T368 821Q368 841 383 856T418 871Q439 871 453 856T468 821Q468 800 454 786T418 771Z" />
<glyph unicode="&#xdd;" glyph-name="Yacute" horiz-adv-x="585" d="M294 0Q262 0 262 33V300L52 660Q42 678 47 689T72 700Q88 700 97 695T114 677L293 368L472 677Q484 700 511 700Q531 700 537 689T533 660L325 300V33Q325 0 294 0ZM241 765Q221 751 210 766Q198
781 216 797L386 943Q405 960 422 940L434 925Q450 904 428 889L241 765Z" />
<glyph unicode="&#xde;" glyph-name="Thorn" horiz-adv-x="628" d="M115 0Q84 0 84 33V667Q84 700 115 700Q145 700 145 667V533H389Q488 533 539 487T591 351Q591 260 540 214T389 167H145V33Q145 0 115 0ZM145 227H384Q456 227 491 257T527 351Q527 415 492
444T384 474H145V227Z" />
<glyph unicode="&#xdf;" glyph-name="germandbls" horiz-adv-x="663" d="M447 -11Q395 -11 351 8T277 62Q259 85 281 104Q300 120 320 98Q370 45 449 45Q495 45 530 71T565 152Q565 178 552 197T511 237T443 290Q400 322 386 342T372 390Q372 415 385 435T416
474T446 514T460 563Q460 614 427 642T333 671Q272 671 230 636T188 520V30Q188 0 158 0Q128 0 128 30V423H59Q29 423 29 451Q29 479 59 479H128V524Q128 597 156 641T230 706T331 727Q423 727 471 684T520 568Q520 535 507 510T476 465T446 427T432 391Q432 372
439 365T466 344Q507 313 543 287T602 231T625 153Q625 80 577 35T447 -11Z" />
<glyph unicode="&#xe0;" glyph-name="agrave" horiz-adv-x="535" d="M202 -9Q132 -10 89 23T45 119Q45 167 77 203T160 259T265 280Q339 280 382 245V327Q382 394 354 414T264 435Q231 435 192 425T120 399Q90 387 77 408Q62 434 93 448Q130 467 176 479T264 491Q355
491 398 456T441 327V62Q441 49 446 46T467 43Q480 43 489 39T498 24Q498 -1 473 -5Q465 -7 456 -8T439 -9Q405 -9 395 5T383 58Q352 24 301 8T202 -9ZM205 46Q253 47 294 61T360 101T383 166Q380 197 349 212T269 227Q228 227 190 213T129 175T105 118Q105 81
133 64T205 46ZM324 545Q313 529 292 544L105 668Q83 684 99 704L112 719Q128 739 148 722L317 576Q335 559 324 545Z" />
<glyph unicode="&#xe1;" glyph-name="aacute" horiz-adv-x="535" d="M202 -9Q132 -10 89 23T45 119Q45 167 77 203T160 259T265 280Q339 280 382 245V327Q382 394 354 414T264 435Q231 435 192 425T120 399Q90 387 77 408Q62 434 93 448Q130 467 176 479T264 491Q355
491 398 456T441 327V62Q441 49 446 46T467 43Q480 43 489 39T498 24Q498 -1 473 -5Q465 -7 456 -8T439 -9Q405 -9 395 5T383 58Q352 24 301 8T202 -9ZM205 46Q253 47 294 61T360 101T383 166Q380 197 349 212T269 227Q228 227 190 213T129 175T105 118Q105 81
133 64T205 46ZM188 544Q168 530 157 545Q145 560 163 576L333 722Q352 739 369 719L381 704Q397 683 375 668L188 544Z" />
<glyph unicode="&#xe2;" glyph-name="acircumflex" horiz-adv-x="535" d="M202 -9Q132 -10 89 23T45 119Q45 167 77 203T160 259T265 280Q339 280 382 245V327Q382 394 354 414T264 435Q231 435 192 425T120 399Q90 387 77 408Q62 434 93 448Q130 467 176 479T264
491Q355 491 398 456T441 327V62Q441 49 446 46T467 43Q480 43 489 39T498 24Q498 -1 473 -5Q465 -7 456 -8T439 -9Q405 -9 395 5T383 58Q352 24 301 8T202 -9ZM205 46Q253 47 294 61T360 101T383 166Q380 197 349 212T269 227Q228 227 190 213T129 175T105 118Q105
81 133 64T205 46ZM202 698Q216 712 234 712H246Q265 712 278 698L382 581Q398 563 385 550Q372 537 354 552L240 645L125 552Q106 536 94 550Q81 563 97 581L202 698Z" />
<glyph unicode="&#xe3;" glyph-name="atilde" horiz-adv-x="535" d="M202 -9Q132 -10 89 23T45 119Q45 167 77 203T160 259T265 280Q339 280 382 245V327Q382 394 354 414T264 435Q231 435 192 425T120 399Q90 387 77 408Q62 434 93 448Q130 467 176 479T264 491Q355
491 398 456T441 327V62Q441 49 446 46T467 43Q480 43 489 39T498 24Q498 -1 473 -5Q465 -7 456 -8T439 -9Q405 -9 395 5T383 58Q352 24 301 8T202 -9ZM205 46Q253 47 294 61T360 101T383 166Q380 197 349 212T269 227Q228 227 190 213T129 175T105 118Q105 81
133 64T205 46ZM120 599Q107 576 90 591Q73 605 84 625Q99 653 119 674T165 695Q185 695 205 685T244 662T280 638T313 628Q338 628 358 669Q373 694 390 679Q406 664 395 646Q379 614 358 595T313 576Q295 576 275 586T236 610T199 633T167 644Q151 644 140 631T120
599Z" />
<glyph unicode="&#xe4;" glyph-name="adieresis" horiz-adv-x="535" d="M202 -9Q132 -10 89 23T45 119Q45 167 77 203T160 259T265 280Q339 280 382 245V327Q382 394 354 414T264 435Q231 435 192 425T120 399Q90 387 77 408Q62 434 93 448Q130 467 176 479T264
491Q355 491 398 456T441 327V62Q441 49 446 46T467 43Q480 43 489 39T498 24Q498 -1 473 -5Q465 -7 456 -8T439 -9Q405 -9 395 5T383 58Q352 24 301 8T202 -9ZM205 46Q253 47 294 61T360 101T383 166Q380 197 349 212T269 227Q228 227 190 213T129 175T105 118Q105
81 133 64T205 46ZM146 550Q126 550 111 564T96 600Q96 620 111 635T146 650Q167 650 181 635T196 600Q196 579 182 565T146 550ZM333 550Q313 550 298 564T283 600Q283 620 298 635T333 650Q354 650 368 635T383 600Q383 579 369 565T333 550Z" />
<glyph unicode="&#xe5;" glyph-name="aring" horiz-adv-x="535" d="M202 -9Q132 -10 89 23T45 119Q45 167 77 203T160 259T265 280Q339 280 382 245V327Q382 394 354 414T264 435Q231 435 192 425T120 399Q90 387 77 408Q62 434 93 448Q130 467 176 479T264 491Q355
491 398 456T441 327V62Q441 49 446 46T467 43Q480 43 489 39T498 24Q498 -1 473 -5Q465 -7 456 -8T439 -9Q405 -9 395 5T383 58Q352 24 301 8T202 -9ZM205 46Q253 47 294 61T360 101T383 166Q380 197 349 212T269 227Q228 227 190 213T129 175T105 118Q105 81
133 64T205 46ZM496 520Q453 520 424 550T394 623Q394 666 423 696T496 726Q539 726 569 696T599 623Q599 580 569 550T496 520ZM496 560Q522 560 540 579T559 623Q559 649 541 667T496 686Q470 686 452 668T433 623Q433 598 451 579T496 560Z" />
<glyph unicode="&#xe6;" glyph-name="ae" horiz-adv-x="861" d="M202 -9Q132 -10 89 23T45 119Q45 167 77 203T160 259T265 280Q339 280 382 245V327Q382 394 354 414T264 435Q231 435 192 425T120 399Q90 387 77 408Q62 434 93 448Q130 467 176 479T264 491Q333
491 374 471T432 401Q461 443 506 466T606 490Q670 490 715 458T785 374T809 265Q809 245 776 245H445Q443 155 487 100T608 44Q703 44 748 129Q768 155 790 143Q816 127 796 98Q733 -11 608 -11Q547 -11 499 16T421 93Q380 41 328 17T202 -9ZM205 46Q253 47 294
61T360 101T383 166Q380 197 349 212T269 227Q228 227 190 213T129 175T105 118Q105 81 133 64T205 46ZM449 297H749Q744 336 725 368T676 419T605 438Q545 438 504 401T449 297Z" />
<glyph unicode="&#xe7;" glyph-name="ccedilla" horiz-adv-x="485" d="M269 -11Q205 -11 155 20T76 109T47 240Q47 314 76 370T155 458T269 490Q355 490 414 434Q427 424 426 412T414 391Q402 383 393 384T370 395Q327 433 269 433Q199 433 154 381T108 240Q108
152 153 99T269 46Q328 46 369 84Q381 94 391 95T414 89Q425 80 426 69T415 46Q355 -11 269 -11ZM220 -176Q193 -176 193 -156Q193 -136 220 -136Q273 -134 297 -128T322 -108Q322 -80 252 -76Q222 -74 230 -48L237 -22Q243 0 265 0Q285 0 279 -21L272 -41Q316
-46 343 -63T371 -108Q371 -143 333 -158T220 -176Z" />
<glyph unicode="&#xe8;" glyph-name="egrave" horiz-adv-x="524" d="M270 -11Q205 -11 155 19T76 106T47 240Q47 315 75 371T154 458T268 490Q333 490 378 458T448 377T472 277Q472 259 464 252T439 245H108Q106 155 150 100T271 44Q365 44 411 129Q431 155 452
143Q478 126 459 98Q396 -11 270 -11ZM112 297H412Q407 336 388 368T338 419T268 438Q207 438 166 401T112 297ZM346 545Q335 529 314 544L127 668Q105 684 121 704L134 719Q150 739 170 722L339 576Q357 559 346 545Z" />
<glyph unicode="&#xe9;" glyph-name="eacute" horiz-adv-x="524" d="M270 -11Q205 -11 155 19T76 106T47 240Q47 315 75 371T154 458T268 490Q333 490 378 458T448 377T472 277Q472 259 464 252T439 245H108Q106 155 150 100T271 44Q365 44 411 129Q431 155 452
143Q478 126 459 98Q396 -11 270 -11ZM112 297H412Q407 336 388 368T338 419T268 438Q207 438 166 401T112 297ZM210 544Q190 530 179 545Q167 560 185 576L355 722Q374 739 391 719L403 704Q419 683 397 668L210 544Z" />
<glyph unicode="&#xea;" glyph-name="ecircumflex" horiz-adv-x="524" d="M270 -11Q205 -11 155 19T76 106T47 240Q47 315 75 371T154 458T268 490Q333 490 378 458T448 377T472 277Q472 259 464 252T439 245H108Q106 155 150 100T271 44Q365 44 411 129Q431 155
452 143Q478 126 459 98Q396 -11 270 -11ZM112 297H412Q407 336 388 368T338 419T268 438Q207 438 166 401T112 297ZM224 698Q238 712 256 712H268Q287 712 300 698L404 581Q420 563 407 550Q394 537 376 552L262 645L147 552Q128 536 116 550Q103 563 119 581L224
698Z" />
<glyph unicode="&#xeb;" glyph-name="edieresis" horiz-adv-x="524" d="M270 -11Q205 -11 155 19T76 106T47 240Q47 315 75 371T154 458T268 490Q333 490 378 458T448 377T472 277Q472 259 464 252T439 245H108Q106 155 150 100T271 44Q365 44 411 129Q431 155
452 143Q478 126 459 98Q396 -11 270 -11ZM112 297H412Q407 336 388 368T338 419T268 438Q207 438 166 401T112 297ZM168 550Q148 550 133 564T118 600Q118 620 133 635T168 650Q189 650 203 635T218 600Q218 579 204 565T168 550ZM355 550Q335 550 320 564T305
600Q305 620 320 635T355 650Q376 650 390 635T405 600Q405 579 391 565T355 550Z" />
<glyph unicode="&#xec;" glyph-name="igrave" horiz-adv-x="241" d="M121 0Q91 0 91 33V446Q91 479 121 479Q151 479 151 446V33Q151 0 121 0ZM461 545Q450 529 429 544L242 668Q220 684 236 704L249 719Q265 739 285 722L454 576Q472 559 461 545Z" />
<glyph unicode="&#xed;" glyph-name="iacute" horiz-adv-x="241" d="M121 0Q91 0 91 33V446Q91 479 121 479Q151 479 151 446V33Q151 0 121 0ZM325 544Q305 530 294 545Q282 560 300 576L470 722Q489 739 506 719L518 704Q534 683 512 668L325 544Z" />
<glyph unicode="&#xee;" glyph-name="icircumflex" horiz-adv-x="241" d="M121 0Q91 0 91 33V446Q91 479 121 479Q151 479 151 446V33Q151 0 121 0ZM339 698Q353 712 371 712H383Q402 712 415 698L519 581Q535 563 522 550Q509 537 491 552L377 645L262 552Q243
536 231 550Q218 563 234 581L339 698Z" />
<glyph unicode="&#xef;" glyph-name="idieresis" horiz-adv-x="241" d="M121 0Q91 0 91 33V446Q91 479 121 479Q151 479 151 446V33Q151 0 121 0ZM283 550Q263 550 248 564T233 600Q233 620 248 635T283 650Q304 650 318 635T333 600Q333 579 319 565T283 550ZM470
550Q450 550 435 564T420 600Q420 620 435 635T470 650Q491 650 505 635T520 600Q520 579 506 565T470 550Z" />
<glyph unicode="&#xf0;" glyph-name="eth" horiz-adv-x="539" d="M269 -11Q205 -11 155 21T76 109T47 240Q47 314 76 370T155 457T269 488Q329 488 378 460Q338 534 271 595L223 547Q200 524 181 542Q161 560 185 584L230 629Q205 647 178 664Q148 683 164 705Q182
729 208 713Q223 704 239 693T271 670L315 714Q339 738 357 719Q377 701 353 677L312 636Q356 596 394 544T459 425T490 279Q492 260 492 240Q492 166 463 110T384 21T269 -11ZM269 46Q316 46 352 70T410 137T431 240Q431 299 410 342T353 410T269 434Q199 434
154 382T108 240Q108 152 153 99T269 46Z" />
<glyph unicode="&#xf1;" glyph-name="ntilde" horiz-adv-x="528" d="M105 0Q74 0 74 33V446Q74 479 103 479Q132 479 132 457L133 411Q156 445 194 468T282 491Q359 491 406 442T453 302V33Q453 0 423 0Q393 0 393 33V293Q393 363 360 398T273 433Q233 433 202
416T153 369T135 303V33Q135 0 105 0ZM145 599Q132 576 115 591Q98 605 109 625Q124 653 144 674T190 695Q210 695 230 685T269 662T305 638T338 628Q363 628 383 669Q398 694 415 679Q431 664 420 646Q404 614 383 595T338 576Q320 576 300 586T261 610T224 633T192
644Q176 644 165 631T145 599Z" />
<glyph unicode="&#xf2;" glyph-name="ograve" horiz-adv-x="539" d="M269 -11Q205 -11 155 21T76 109T47 240Q47 314 76 370T155 459T269 491Q334 491 384 459T463 371T492 240Q492 166 463 110T384 21T269 -11ZM269 46Q316 46 352 70T410 137T431 240Q431 299
410 342T353 410T269 434Q199 434 154 382T108 240Q108 152 153 99T269 46ZM354 545Q343 529 322 544L135 668Q113 684 129 704L142 719Q158 739 178 722L347 576Q365 559 354 545Z" />
<glyph unicode="&#xf3;" glyph-name="oacute" horiz-adv-x="539" d="M269 -11Q205 -11 155 21T76 109T47 240Q47 314 76 370T155 459T269 491Q334 491 384 459T463 371T492 240Q492 166 463 110T384 21T269 -11ZM269 46Q316 46 352 70T410 137T431 240Q431 299
410 342T353 410T269 434Q199 434 154 382T108 240Q108 152 153 99T269 46ZM218 544Q198 530 187 545Q175 560 193 576L363 722Q382 739 399 719L411 704Q427 683 405 668L218 544Z" />
<glyph unicode="&#xf4;" glyph-name="ocircumflex" horiz-adv-x="539" d="M269 -11Q205 -11 155 21T76 109T47 240Q47 314 76 370T155 459T269 491Q334 491 384 459T463 371T492 240Q492 166 463 110T384 21T269 -11ZM269 46Q316 46 352 70T410 137T431 240Q431
299 410 342T353 410T269 434Q199 434 154 382T108 240Q108 152 153 99T269 46ZM232 698Q246 712 264 712H276Q295 712 308 698L412 581Q428 563 415 550Q402 537 384 552L270 645L155 552Q136 536 124 550Q111 563 127 581L232 698Z" />
<glyph unicode="&#xf5;" glyph-name="otilde" horiz-adv-x="539" d="M269 -11Q205 -11 155 21T76 109T47 240Q47 314 76 370T155 459T269 491Q334 491 384 459T463 371T492 240Q492 166 463 110T384 21T269 -11ZM269 46Q316 46 352 70T410 137T431 240Q431 299
410 342T353 410T269 434Q199 434 154 382T108 240Q108 152 153 99T269 46ZM150 599Q137 576 120 591Q103 605 114 625Q129 653 149 674T195 695Q215 695 235 685T274 662T310 638T343 628Q368 628 388 669Q403 694 420 679Q436 664 425 646Q409 614 388 595T343
576Q325 576 305 586T266 610T229 633T197 644Q181 644 170 631T150 599Z" />
<glyph unicode="&#xf6;" glyph-name="odieresis" horiz-adv-x="539" d="M269 -11Q205 -11 155 21T76 109T47 240Q47 314 76 370T155 459T269 491Q334 491 384 459T463 371T492 240Q492 166 463 110T384 21T269 -11ZM269 46Q316 46 352 70T410 137T431 240Q431
299 410 342T353 410T269 434Q199 434 154 382T108 240Q108 152 153 99T269 46ZM176 550Q156 550 141 564T126 600Q126 620 141 635T176 650Q197 650 211 635T226 600Q226 579 212 565T176 550ZM363 550Q343 550 328 564T313 600Q313 620 328 635T363 650Q384 650
398 635T413 600Q413 579 399 565T363 550Z" />
<glyph unicode="&#xf7;" glyph-name="divide" horiz-adv-x="922" d="M162 330Q129 330 129 357Q129 382 162 382H761Q794 382 794 357Q794 330 761 330H162ZM461 56Q437 56 421 73T404 114Q404 138 420 154T461 171Q485 171 501 155T518 114Q518 90 502 73T461
56ZM461 542Q437 542 421 558T404 598Q404 622 420 639T461 656Q485 656 501 639T518 598Q518 575 502 559T461 542Z" />
<glyph unicode="&#xf8;" glyph-name="oslash" horiz-adv-x="539" d="M269 -11Q212 -11 165 15L155 -3Q139 -31 119 -20Q100 -9 117 19L129 40Q91 73 69 124T47 240Q47 314 76 370T155 459T269 491Q326 491 374 465L384 482Q400 511 419 500Q437 488 422 460L410
439Q448 406 470 355T492 240Q492 166 463 110T384 21T269 -11ZM159 92L345 415Q311 434 269 434Q199 434 154 382T108 240Q108 193 121 156T159 92ZM269 46Q316 46 352 70T410 137T431 240Q431 287 418 324T380 387L194 65Q228 46 269 46Z" />
<glyph unicode="&#xf9;" glyph-name="ugrave" horiz-adv-x="519" d="M236 -11Q160 -11 113 38T66 178V446Q66 479 96 479Q126 479 126 446V186Q126 116 159 81T246 46Q307 46 345 84T383 177V446Q383 479 414 479Q444 479 444 446V34Q444 1 416 1Q387 1 387 23L385
68Q364 35 325 12T236 -11ZM344 545Q333 529 312 544L125 668Q103 684 119 704L132 719Q148 739 168 722L337 576Q355 559 344 545Z" />
<glyph unicode="&#xfa;" glyph-name="uacute" horiz-adv-x="519" d="M236 -11Q160 -11 113 38T66 178V446Q66 479 96 479Q126 479 126 446V186Q126 116 159 81T246 46Q307 46 345 84T383 177V446Q383 479 414 479Q444 479 444 446V34Q444 1 416 1Q387 1 387 23L385
68Q364 35 325 12T236 -11ZM208 544Q188 530 177 545Q165 560 183 576L353 722Q372 739 389 719L401 704Q417 683 395 668L208 544Z" />
<glyph unicode="&#xfb;" glyph-name="ucircumflex" horiz-adv-x="519" d="M236 -11Q160 -11 113 38T66 178V446Q66 479 96 479Q126 479 126 446V186Q126 116 159 81T246 46Q307 46 345 84T383 177V446Q383 479 414 479Q444 479 444 446V34Q444 1 416 1Q387 1 387
23L385 68Q364 35 325 12T236 -11ZM222 698Q236 712 254 712H266Q285 712 298 698L402 581Q418 563 405 550Q392 537 374 552L260 645L145 552Q126 536 114 550Q101 563 117 581L222 698Z" />
<glyph unicode="&#xfc;" glyph-name="udieresis" horiz-adv-x="519" d="M236 -11Q160 -11 113 38T66 178V446Q66 479 96 479Q126 479 126 446V186Q126 116 159 81T246 46Q307 46 345 84T383 177V446Q383 479 414 479Q444 479 444 446V34Q444 1 416 1Q387 1 387
23L385 68Q364 35 325 12T236 -11ZM166 550Q146 550 131 564T116 600Q116 620 131 635T166 650Q187 650 201 635T216 600Q216 579 202 565T166 550ZM353 550Q333 550 318 564T303 600Q303 620 318 635T353 650Q374 650 388 635T403 600Q403 579 389 565T353 550Z"
/>
<glyph unicode="&#xfd;" glyph-name="yacute" horiz-adv-x="482" d="M98 -216Q88 -216 79 -215T59 -212Q29 -209 29 -179Q29 -153 55 -156Q75 -159 94 -159Q131 -159 149 -143T183 -85L215 0L42 441Q35 458 40 468T59 479H62Q89 479 100 453L243 76L381 452Q390
479 418 479Q434 479 440 469T440 441L237 -104Q216 -162 184 -189T98 -216ZM190 544Q170 530 159 545Q147 560 165 576L335 722Q354 739 371 719L383 704Q399 683 377 668L190 544Z" />
<glyph unicode="&#xfe;" glyph-name="thorn" horiz-adv-x="567" d="M105 -208Q74 -208 74 -175V667Q74 700 105 700Q135 700 135 667V395Q161 439 203 465T299 491Q363 491 413 460T491 372T520 240Q520 165 492 109T413 21T299 -11Q245 -11 203 15T135 85V-175Q135
-208 105 -208ZM298 46Q345 46 381 70T439 137T460 240Q460 299 439 342T382 410T298 434Q227 434 181 382T135 240Q135 152 181 99T298 46Z" />
<glyph unicode="&#xff;" glyph-name="ydieresis" horiz-adv-x="482" d="M98 -216Q88 -216 79 -215T59 -212Q29 -209 29 -179Q29 -153 55 -156Q75 -159 94 -159Q131 -159 149 -143T183 -85L215 0L42 441Q35 458 40 468T59 479H62Q89 479 100 453L243 76L381 452Q390
479 418 479Q434 479 440 469T440 441L237 -104Q216 -162 184 -189T98 -216ZM148 550Q128 550 113 564T98 600Q98 620 113 635T148 650Q169 650 183 635T198 600Q198 579 184 565T148 550ZM335 550Q315 550 300 564T285 600Q285 620 300 635T335 650Q356 650 370
635T385 600Q385 579 371 565T335 550Z" />
<glyph unicode="&#x2013;" glyph-name="endash" horiz-adv-x="528" d="M95 224Q82 224 74 232T65 254Q65 266 73 275T95 284H433Q446 284 454 275T463 254Q463 241 455 233T433 224H95Z" />
<glyph unicode="&#x2014;" glyph-name="emdash" horiz-adv-x="1000" d="M0 360Q-8 360 -14 366T-20 380Q-20 388 -14 394T0 400H1000Q1008 400 1014 394T1020 380Q1020 372 1014 366T1000 360H0Z" />
<glyph unicode="&#x2018;" glyph-name="quoteleft" horiz-adv-x="240" d="M131 709Q145 717 155 714T169 703Q174 694 168 687T147 672Q89 644 89 591Q89 565 98 554Q103 568 115 577T143 587Q163 587 178 574T193 537Q193 515 177 502T139 487Q101 484 74 513T47
592Q47 634 69 663T131 709Z" />
<glyph unicode="&#x2019;" glyph-name="quoteright" horiz-adv-x="240" d="M109 489Q95 482 86 484T71 495Q67 504 73 511T93 526Q151 553 151 607Q151 632 142 644Q138 630 126 621T97 611Q76 611 62 625T47 661Q47 683 63 696T101 711Q139 713 166 685T193 606Q193
564 171 535T109 489Z" />
<glyph unicode="&#x201a;" glyph-name="quotesinglbase" horiz-adv-x="277" d="M128 -133Q99 -147 89 -126Q81 -112 112 -96Q139 -82 154 -62T169 -14Q169 10 161 23Q156 9 144 0T116 -10Q95 -10 81 4T66 40Q66 62 82 75T120 90Q158 92 184 63T211 -16Q211 -57
189 -86T128 -133Z" />
<glyph unicode="&#x201c;" glyph-name="quotedblleft" horiz-adv-x="430" d="M131 709Q145 717 155 714T169 703Q174 694 168 687T147 672Q89 644 89 591Q89 565 98 554Q103 568 115 577T143 587Q163 587 178 574T193 537Q193 515 177 502T139 487Q101 484 74
513T47 592Q47 634 69 663T131 709ZM321 709Q335 717 345 714T360 703Q365 694 358 687T337 672Q310 659 295 639T280 591Q280 565 288 554Q293 568 305 577T333 587Q354 587 368 574T383 537Q383 515 368 502T329 487Q292 484 265 513T238 592Q238 634 260 663T321
709Z" />
<glyph unicode="&#x201d;" glyph-name="quotedblright" horiz-adv-x="430" d="M109 489Q95 482 86 484T71 495Q67 504 73 511T93 526Q151 553 151 607Q151 632 142 644Q138 630 126 621T97 611Q76 611 62 625T47 661Q47 683 63 696T101 711Q139 713 166 685T193
606Q193 564 171 535T109 489ZM299 489Q286 482 276 484T261 495Q257 504 263 511T283 526Q341 553 341 607Q341 632 332 644Q328 630 316 621T288 611Q267 611 253 625T238 661Q238 683 254 696T292 711Q330 713 356 685T383 606Q383 564 361 535T299 489Z" />
<glyph unicode="&#x201e;" glyph-name="quotedblbase" horiz-adv-x="464" d="M315 -133Q286 -147 276 -126Q268 -112 299 -96Q326 -82 341 -62T356 -14Q356 10 348 23Q343 9 331 0T303 -10Q282 -10 268 4T253 40Q253 62 269 75T307 90Q345 92 371 63T398 -16Q398
-57 376 -86T315 -133ZM128 -133Q99 -147 89 -126Q81 -112 112 -96Q139 -82 154 -62T169 -14Q169 10 161 23Q156 9 144 0T116 -10Q95 -10 81 4T66 40Q66 62 82 75T120 90Q158 92 184 63T211 -16Q211 -57 189 -86T128 -133Z" />
<glyph unicode="&#x2022;" glyph-name="bullet" horiz-adv-x="303" d="M152 337Q119 337 97 359T74 414Q74 446 96 468T152 491Q184 491 206 469T229 414Q229 382 207 360T152 337Z" />
<glyph unicode="&#x2039;" glyph-name="guilsinglleft" horiz-adv-x="366" d="M68 261Q48 284 68 307L205 457Q222 475 246 475Q263 475 266 463T255 434L117 284L255 134Q269 118 269 106T257 93H246Q222 93 205 111L68 261Z" />
<glyph unicode="&#x203a;" glyph-name="guilsinglright" horiz-adv-x="366" d="M297 307Q318 284 297 261L161 111Q145 93 120 93Q103 93 100 105T111 134L248 284L111 434Q96 451 96 463T110 475H120Q145 475 161 457L297 307Z" />
</font>
</defs>
</svg>
